img image001 image001 image001 image001 image001 image001 image001 image001 image001 image001 image001 image001 image001 image001 image001

Planets Sun Sun Sun
Статистика раздачи
Автор: Nickolas3434 | Размер: 1.46 ГБ | Добавлен: 22 ноя 2014
Раздают: 337    Качают: 41
Скачать торрент
Скачать торрент
Описание торрента

СообщениеДобавлено: 22 ноя 2014 

Страна: Россия
Производство: Мармот-фильм
Жанр: военный, драма
Год выпуска: 2013
Продолжительность: 03:25:25 (00:45:37, 00:57:36, 00:51:43, 00:50:29)
Перевод: Не требуется
Cубтитры: нет
Оригинальная аудиодорожка: русский
Режиссер: Александр Велединский
В ролях:
Ксения Раппопорт, Алексей Серебряков, Андрей Мерзликин, Дмитрий Назаров, Юрий Кузнецов, Виталий Коваленко, Яков Шамшин, Анна Блинова, Филипп Ершов, Олег Федоров, Алексей Ведерников, Юлия Ауг...
Описание:
Блокадный Ленинград. Зима 1942-го. Советская контрразведка узнает, что немцы готовят диверсию на «Дороге жизни» — единственном пути, по которому в город доставляется продовольствие и другие грузы. Скорее всего, диверсант — один из водителей «полуторок», работающих на замерзшем Ладожском озере. Найти и остановить врага должен капитан НКВД Сергиенко…






Источник: HDTV 1080i
Качество видео: HDTVRip
Формат видео: AVI
Виде: 656x368 (16:9), 25 fps, XviD ~ 878 kbps avg, 0.145 bit/pixel
Аудио: 48 kHz, MP3 2.0, 128 kbps
Раздача от:
Общее
Полное имя : Ladoga.2013.HDTVRip-1.46_[New-team]_by_AVP_Studio\02.avi
Формат : AVI
Формат/Информация : Audio Video Interleave
Размер файла : 418 Мбайт
Продолжительность : 57 м.
Общий поток : 1016 Кбит/сек
Программа кодирования : VirtualDubModRus 1.5.10.2 (build 2542/release)
Библиотека кодирования : VirtualDubMod build 2542/release
Видео
Идентификатор : 0
Формат : MPEG-4 Visual
Профиль формата : Advanced Simple@L5
Параметр BVOP формата : 1
Параметр QPel формата : Нет
Параметр GMC формата : Без точки перехода
Параметр матрицы формата : Выборочная
Идентификатор кодека : XVID
Идентификатор кодека/Подсказка : XviD
Продолжительность : 57 м.
Битрейт : 878 Кбит/сек
Ширина : 656 пикселей
Высота : 368 пикселей
Соотношение сторон : 16:9
Частота кадров : 25,000 кадров/сек
Цветовое пространство : YUV
Субдискретизация насыщенности : 4:2:0
Битовая глубина : 8 бит
Тип развёртки : Прогрессивная
Метод сжатия : С потерями
Бит/(Пиксели*Кадры) : 0.145
Размер потока : 361 Мбайт (86%)
Библиотека кодирования : XviD 73
Аудио
Идентификатор : 1
Формат : MPEG Audio
Версия формата : Version 1
Профиль формата : Layer 3
Идентификатор кодека : 55
Идентификатор кодека/Подсказка : MP3
Продолжительность : 57 м.
Вид битрейта : Постоянный
Битрейт : 128 Кбит/сек
Каналы : 2 канала
Частота : 48,0 КГц
Метод сжатия : С потерями
Размер потока : 52,7 Мбайт (13%)
Выравнивание : Соединение по промежуткам
Продолжительность промежутка : 40 мс. (1,00 видеокадр)
Время предзагрузки промежутка : 504 мс.
Библиотека кодирования : LAME3.99r
Настройки программы : -m s -V 4 -q 2 -lowpass 17 -b 128





   Похожие торренты   Торрент   Размер 
В этой теме нет новых непрочитанных сообщений. Ладога [01-04 из 04] (2013) HDTVRip от New-Team

177 | 24

2.19 ГБ

В этой теме нет новых непрочитанных сообщений. Ладога [01-04 из 04] (2013) HDTVRip-AVC от New-Team

174 | 23

4.37 ГБ

В этой теме нет новых непрочитанных сообщений. Ладога - дорога жизни [S01] (2013) HDTVRip | iPhone

2 | 1

1.11 ГБ

В этой теме нет новых непрочитанных сообщений. Ладога - дорога жизни [01-04 из 04] (2013) HDTVRip 720p от MediaClub

37 | 7

7.39 ГБ

В этой теме нет новых непрочитанных сообщений. Ладога [01-04 из 04] (2014) DVDRip-AVC от New-Team | лицензия

95 | 17

3.23 ГБ

В этой теме нет новых непрочитанных сообщений. Ладога [01-04 из 04] (2014) DVDRip от New-Team | лицензия

253 | 48

3.24 ГБ

В этой теме нет новых непрочитанных сообщений. Ладога [01-04 из 04] (2014) DVD9 R5 от New-Team | лицензия

21 | 7

7.43 ГБ




Вы не можете начинать темы
Вы не можете отвечать на сообщения
Вы не можете редактировать свои сообщения
Вы не можете удалять свои сообщения
Вы не можете добавлять вложения

Перейти:  
Для Мосгорсуда, Роскомнадзора и рекламодателей: mosgorsud-torrent[собачка]yandex.ru
 Вход
ppkBB3cker v.2 © 2008-2014 @ PPK
[ Time : 0.057s | 17 Queries | GZIP : Off ]

cron