img image001 image001 image001 image001 image001 image001 image001 image001 image001 image001 image001 image001 image001 image001 image001

Planets Sun Sun Sun
Статистика раздачи
Автор: Nickolas3434 | Размер: 8.79 ГБ | Добавлен: 05 дек 2014
Раздают: 286    Качают: 80
Скачать торрент
Скачать торрент
Описание торрента

СообщениеДобавлено: 05 дек 2014 

«Когда твоя жизнь в тени...»




Страна: Россия / Щука

Жанр: детектив, приключения
Год выпуска: 2013
Продолжительность: ~ 00:52:00 / серия

Перевод: Не требуется
Cубтитры: нет
Оригинальная аудиодорожка: русский

Режиссер: Дмитрий Черкасов

В ролях: Оксана Фандера, Анатолий Белый, Александр Робак, Алексей Литвиненко (II), Виталий Хаев, Анна Лутцева, Фёдор Лавров, Дмитрий Фрид, Ольга Дыховичная, Ольга Сумская, Константин Котляров, Игорь Денисов, Максим Меркулов, Борис Тенин (II), Роман Морозов, Артём Григорьев (II), Евгений Кушпель, Андрюс Паулавичюс, Полина Стефанович, Артём Григорьев (II), Олег Вебер, Инна Коляда

Описание: Команда Андрея Шпагина расследует заговор крупного преступного синдиката по нелегальной добыче и контрабанде неограненных алмазов. Сложный преступный механизм под личиной солидного легального бизнеса. Городские шпионы — люди, которых мы не видим. С тысячью лиц в рукаве и без права на ошибку…




Качество: DVDRip / 3 x DVD9 R5 - лицензионные диски от компании "Cinema Prestige"
Формат: AVI

Видео: 720x400 (16:9), 25.000 fps, XviD ~ 1800 kbps avg, 0.250 bit/pixel
Аудио: 48 kHz, Dolby AC3, 2 ch, 192 kbps, русский

Раздача от:

General
Format : AVI
Format/Info : Audio Video Interleave
File size : 754 MiB
Duration : 52mn 41s
Overall bit rate : 2 002 Kbps
Writing application : VirtualDubModRus 1.5.10.2 (build 2542/release)
Writing library : VirtualDubMod build 2542/release

Video
ID : 0
Format : MPEG-4 Visual
Format profile : Advanced Simple@L5
Format settings, BVOP : 1
Format settings, QPel : No
Format settings, GMC : No warppoints
Format settings, Matrix : Custom
Codec ID : XVID
Codec ID/Hint : XviD
Duration : 52mn 41s
Bit rate : 1 800 Kbps
Width : 720 pixels
Height : 400 pixels
Display aspect ratio : 16:9
Frame rate : 25.000 fps
Color space : YUV
Chroma subsampling : 4:2:0
Bit depth : 8 bits
Scan type : Progressive
Compression mode : Lossy
Bits/(Pixel*Frame) : 0.250
Stream size : 678 MiB (90%)
Writing library : XviD 73

Audio
ID : 1
Format : AC-3
Format/Info : Audio Coding 3
Mode extension : CM (complete main)
Format settings, Endianness : Big
Codec ID : 2000
Duration : 52mn 41s
Bit rate mode : Constant
Bit rate : 192 Kbps
Channel(s) : 2 channels
Channel positions : Front: L R
Sampling rate : 48.0 KHz
Bit depth : 16 bits
Compression mode : Lossy
Stream size : 72.4 MiB (10%)
Alignment : Split accross interleaves
Interleave, duration : 40 ms (1.00 video frame)
Interleave, preload duration : 500 ms






   Похожие торренты   Торрент   Размер 
В этой теме нет новых непрочитанных сообщений. Городские шпионы [01-12 из 12] (2013) DVDRip-AVC от New-Team | лицензия

104 | 30

8.78 ГБ

В этой теме нет новых непрочитанных сообщений. Городские шпионы [01-12 из 12] (2013) 3xDVD9 от New-Team | Лицензия

8 | 9

22.83 ГБ

В этой теме нет новых непрочитанных сообщений. Городские шпионы [01-12 из 12] (2013) SATRip

58 | 10

8.27 ГБ

В этой теме нет новых непрочитанных сообщений. Городские шпионы [01-06 из 12] (2013) WEB-DL 1080p от MediaClub

48 | 14

9.2 ГБ

В этой теме нет новых непрочитанных сообщений. Городские шпионы [01-06 из 12] (2013) WEB-DL 1080p от MediaClub

103 | 50

18.42 ГБ

В этой теме нет новых непрочитанных сообщений. Городские шпионы [01-12 из 12] (2013) WEB-DLRip-AVC от Files-x

153 | 27

7.87 ГБ

В этой теме нет новых непрочитанных сообщений. Шпионы как мы / Spies Like Us (1985) BDRip 720p от NOLIMITS-TEAM

0 | 3

2.88 ГБ




Вы не можете начинать темы
Вы не можете отвечать на сообщения
Вы не можете редактировать свои сообщения
Вы не можете удалять свои сообщения
Вы не можете добавлять вложения

Перейти:  
Для Мосгорсуда, Роскомнадзора и рекламодателей: mosgorsud-torrent[собачка]yandex.ru
 Вход
ppkBB3cker v.2 © 2008-2014 @ PPK
[ Time : 0.037s | 14 Queries | GZIP : Off ]
CGP output time : 0.079s | 5 Queries | GZIP : Off

Торрент трекер RUTOR.IN, Не можете зайти на rutor.org? Какой новый адрес рутор? Какое зеркало рутор? Не работает rutor.org и зеркала? Тогда наш торрент специально для вас. Rutor.in неофициальное зеркало rutor. В случае если у Вас заблокирован rutor или вдруг Вы не можете на него зайти, то Вы без труда сможете скачать бесплатно и без рекламы последние новинки кино, игр, сериалов и прочего у нас, на Rutor.in. Не нужно использовать прокси, чтобы зайти на рутор, достаточно воспользоваться нашим ресурсом. Все новые фильмы, игры, сериалы, книги и музыка за 2013 и 2014 годы через торрент бесплатно. Скачивайте фильмы в хорошем качестве, игры для пк, xbox, playstation без регистрации. У нас вы найдете новые Зарубежные сериалы и Русские сериалы 2013, 2014, 2015 годов. Оставайтесь с нами, качайте любимые фильмы, игры, сериалы, книги и музыку.