img image001 image001 image001 image001 image001 image001 image001 image001 image001 image001 image001 image001 image001 image001 image001

Planets Sun Sun Sun
Статистика раздачи
Автор: Nickolas3434 | Размер: 29.99 ГБ | Добавлен: 06 дек 2014
Раздают: 200    Качают: 28
Скачать торрент
Скачать торрент
Описание торрента

СообщениеДобавлено: 06 дек 2014 

Адмиралъ (2008) BDRip [Телеверсия]

Год выпуска: 2008
Производство: Россия / Film Direction, Dago Productions
Жанр: драма, история
Режиссер: Андрей Кравчук
Актеры: Константин Хабенский, Елизавета Боярская, Сергей Безруков, Анна Ковальчук, Владислав Ветров, Егор Бероев, Ришар Боренже, Николай Бурляев, Виктор Вержбицкий, Фёдор Бондарчук
Описание фильма: Фильм, рассказывающий о жизни и любви выдающегося боевого офицера военно-морского флота, полярного исследователя, а затем ставшего адмиралом, верховного правителя России — Александра Васильевича Колчака и Анны Тимиревой. События разворачиваются в период 1916-1920 годов на фоне крушения Российской империи, двух революций и Гражданской войны...
4 кинопремии «Золотой орел» и Кинонаграды «MTV-Россия», 2009 г. включая Лучший фильм, Лучшая мужская роль (Константин Хабенский) и Лучшая женская роль (Елизавета Боярская).

Продолжительность: ~ 00:50:00 серия
Качество: BDRip (720p)
Видео: MPEG-4 AVC/H.264, 1280 x 604 (2,119:1), ~7000 kbps, 23.976 fps, 0.393 b/px
Аудио: DTS, 6 ch, 1509 kbps, 48 000 Hz
1 серия
Общее
Уникальный идентификатор : 235963054742996724997357825711775970160 (0xB184D4CF6993A21A88D5E4A1A2DC7370)
Полное имя : D:Адмиралъ [Телеверсия] [10 серий] [BDRip] [720p]Серия 01.mkv
Формат : Matroska
Версия формата : Version 4 / Version 2
Размер файла : 3,00 Гбайт
Продолжительность : 48 м.
Общий поток : 8794 Кбит/сек
Название фильма : Адмиралъ [Телеверсия] (2008) BDRip [720p]
Дата кодирования : UTC 2014-12-01 10:40:43
Программа кодирования : mkvmerge v7.2.0 ('On Every Street') 32bit built on Sep 13 2014 15:42:11
Библиотека кодирования : libebml v1.3.0 + libmatroska v1.4.1
DURATION : 00:48:48.907000000
NUMBER_OF_FRAMES : 274586
NUMBER_OF_BYTES : 552467032
_STATISTICS_WRITING_APP : mkvmerge v7.2.0 ('On Every Street') 32bit built on Sep 13 2014 15:42:11
_STATISTICS_WRITING_DATE_UTC : 2014-12-01 10:40:43
_STATISTICS_TAGS : BPS DURATION NUMBER_OF_FRAMES NUMBER_OF_BYTES
Видео
Идентификатор : 1
Формат : AVC
Формат/Информация : Advanced Video Codec
Профиль формата : High@L4.1
Параметр CABAC формата : Да
Параметр ReFrames формата : 8 кадров
Идентификатор кодека : V_MPEG4/ISO/AVC
Продолжительность : 48 м.
Битрейт : 7284 Кбит/сек
Ширина : 1280 пикселей
Высота : 604 пикселя
Соотношение сторон : 2,119
Режим частоты кадров : Постоянный
Частота кадров : 23,976 кадра/сек
Цветовое пространство : YUV
Субдискретизация насыщенности : 4:2:0
Битовая глубина : 8 бит
Тип развёртки : Прогрессивная
Бит/(Пиксели*Кадры) : 0.393
Размер потока : 2,42 Гбайт (81%)
Заголовок : [2008] Адмиралъ [Телеверсия] [BDRip] [720p]
Библиотека кодирования : x264 core 84 r1400M 20fa784
Настройки программы : cabac=1 / ref=8 / deblock=1:-3:-3 / analyse=0x3:0x113 / me=umh / subme=9 / psy=1 / psy_rd=1.0:0.0 / mixed_ref=1 / me_range=32 / chroma_me=1 / trellis=2 / 8x8dct=1 / cqm=0 / deadzone=21,11 / fast_pskip=0 / chroma_qp_offset=-2 / threads=12 / sliced_threads=0 / nr=0 / decimate=0 / mbaff=0 / constrained_intra=0 / bframes=8 / b_pyramid=2 / b_adapt=2 / b_bias=0 / direct=3 / wpredb=1 / wpredp=2 / keyint=240 / keyint_min=24 / scenecut=40 / intra_refresh=0 / rc_lookahead=80 / rc=2pass / mbtree=1 / bitrate=7284 / ratetol=1.0 / qcomp=0.80 / qpmin=10 / qpmax=51 / qpstep=4 / cplxblur=20.0 / qblur=0.5 / vbv_maxrate=50000 / vbv_bufsize=62500 / ip_ratio=1.40 / aq=1:0.80 / pulldown=0 / nal_hrd=0
Язык : Russian
Default : Да
Forced : Нет
DURATION : 00:48:48.889000000
NUMBER_OF_FRAMES : 70223
NUMBER_OF_BYTES : 2666094674
_STATISTICS_WRITING_APP : mkvmerge v7.2.0 ('On Every Street') 32bit built on Sep 13 2014 15:42:11
_STATISTICS_WRITING_DATE_UTC : 2014-12-01 10:40:43
_STATISTICS_TAGS : BPS DURATION NUMBER_OF_FRAMES NUMBER_OF_BYTES
Аудио
Идентификатор : 2
Формат : DTS
Формат/Информация : Digital Theater Systems
Режим : 16
Параметр Endianness формата : Big
Идентификатор кодека : A_DTS
Продолжительность : 48 м.
Вид битрейта : Постоянный
Битрейт : 1509 Кбит/сек
Каналы : 6 каналов
Расположение каналов : Front: L C R, Side: L R, LFE
Частота : 48,0 КГц
Битовая глубина : 16 бит
Метод сжатия : С потерями
Размер потока : 527 Мбайт (17%)
Заголовок : Оригинальный
Язык : Russian
Default : Да
Forced : Нет
2 серия
Общее
Уникальный идентификатор : 254785101810055869382412808217649345721 (0xBFADD360CFB388C3ADDBB85C68B1F4B9)
Полное имя : D:Адмиралъ [Телеверсия] [10 серий] [BDRip] [720p]Серия 02.mkv
Формат : Matroska
Версия формата : Version 4 / Version 2
Размер файла : 3,00 Гбайт
Продолжительность : 52 м.
Общий поток : 8179 Кбит/сек
Название фильма : Адмиралъ [Телеверсия] (2008) BDRip [720p]
Дата кодирования : UTC 2014-12-01 10:43:43
Программа кодирования : mkvmerge v7.2.0 ('On Every Street') 32bit built on Sep 13 2014 15:42:11
Библиотека кодирования : libebml v1.3.0 + libmatroska v1.4.1
DURATION : 00:52:29.974000000
NUMBER_OF_FRAMES : 295314
NUMBER_OF_BYTES : 594171768
_STATISTICS_WRITING_APP : mkvmerge v7.2.0 ('On Every Street') 32bit built on Sep 13 2014 15:42:11
_STATISTICS_WRITING_DATE_UTC : 2014-12-01 10:43:43
_STATISTICS_TAGS : BPS DURATION NUMBER_OF_FRAMES NUMBER_OF_BYTES
Видео
Идентификатор : 1
Формат : AVC
Формат/Информация : Advanced Video Codec
Профиль формата : High@L4.1
Параметр CABAC формата : Да
Параметр ReFrames формата : 8 кадров
Идентификатор кодека : V_MPEG4/ISO/AVC
Продолжительность : 52 м.
Битрейт : 6667 Кбит/сек
Ширина : 1280 пикселей
Высота : 604 пикселя
Соотношение сторон : 2,119
Режим частоты кадров : Постоянный
Частота кадров : 23,976 кадра/сек
Цветовое пространство : YUV
Субдискретизация насыщенности : 4:2:0
Битовая глубина : 8 бит
Тип развёртки : Прогрессивная
Бит/(Пиксели*Кадры) : 0.360
Размер потока : 2,39 Гбайт (80%)
Заголовок : [2008] Адмиралъ [Телеверсия] [BDRip] [720p]
Библиотека кодирования : x264 core 84 r1400M 20fa784
Настройки программы : cabac=1 / ref=8 / deblock=1:-3:-3 / analyse=0x3:0x113 / me=umh / subme=9 / psy=1 / psy_rd=1.0:0.0 / mixed_ref=1 / me_range=32 / chroma_me=1 / trellis=2 / 8x8dct=1 / cqm=0 / deadzone=21,11 / fast_pskip=0 / chroma_qp_offset=-2 / threads=12 / sliced_threads=0 / nr=0 / decimate=0 / mbaff=0 / constrained_intra=0 / bframes=8 / b_pyramid=2 / b_adapt=2 / b_bias=0 / direct=3 / wpredb=1 / wpredp=2 / keyint=240 / keyint_min=24 / scenecut=40 / intra_refresh=0 / rc_lookahead=80 / rc=2pass / mbtree=1 / bitrate=6667 / ratetol=1.0 / qcomp=0.80 / qpmin=10 / qpmax=51 / qpstep=4 / cplxblur=20.0 / qblur=0.5 / vbv_maxrate=50000 / vbv_bufsize=62500 / ip_ratio=1.40 / aq=1:0.80 / pulldown=0 / nal_hrd=0
Язык : Russian
Default : Да
Forced : Нет
DURATION : 00:52:29.944000000
NUMBER_OF_FRAMES : 75523
NUMBER_OF_BYTES : 2625428261
_STATISTICS_WRITING_APP : mkvmerge v7.2.0 ('On Every Street') 32bit built on Sep 13 2014 15:42:11
_STATISTICS_WRITING_DATE_UTC : 2014-12-01 10:43:43
_STATISTICS_TAGS : BPS DURATION NUMBER_OF_FRAMES NUMBER_OF_BYTES
Аудио
Идентификатор : 2
Формат : DTS
Формат/Информация : Digital Theater Systems
Режим : 16
Параметр Endianness формата : Big
Идентификатор кодека : A_DTS
Продолжительность : 52 м.
Вид битрейта : Постоянный
Битрейт : 1509 Кбит/сек
Каналы : 6 каналов
Расположение каналов : Front: L C R, Side: L R, LFE
Частота : 48,0 КГц
Битовая глубина : 16 бит
Метод сжатия : С потерями
Размер потока : 567 Мбайт (18%)
Заголовок : Оригинальный
Язык : Russian
Default : Да
Forced : Нет
3 серия
Общее
Уникальный идентификатор : 208085877451377465176077357226968434505 (0x9C8BE1DA6668A92EA2FA4BF778A34749)
Полное имя : D:Адмиралъ [Телеверсия] [10 серий] [BDRip] [720p]Серия 03.mkv
Формат : Matroska
Версия формата : Version 4 / Version 2
Размер файла : 3,00 Гбайт
Продолжительность : 51 м.
Общий поток : 8307 Кбит/сек
Название фильма : Адмиралъ [Телеверсия] (2008) BDRip [720p]
Дата кодирования : UTC 2014-12-01 10:45:41
Программа кодирования : mkvmerge v7.2.0 ('On Every Street') 32bit built on Sep 13 2014 15:42:11
Библиотека кодирования : libebml v1.3.0 + libmatroska v1.4.1
DURATION : 00:51:42.070000000
NUMBER_OF_FRAMES : 290821
NUMBER_OF_BYTES : 585131852
_STATISTICS_WRITING_APP : mkvmerge v7.2.0 ('On Every Street') 32bit built on Sep 13 2014 15:42:11
_STATISTICS_WRITING_DATE_UTC : 2014-12-01 10:45:41
_STATISTICS_TAGS : BPS DURATION NUMBER_OF_FRAMES NUMBER_OF_BYTES
Видео
Идентификатор : 1
Формат : AVC
Формат/Информация : Advanced Video Codec
Профиль формата : High@L4.1
Параметр CABAC формата : Да
Параметр ReFrames формата : 8 кадров
Идентификатор кодека : V_MPEG4/ISO/AVC
Продолжительность : 51 м.
Битрейт : 6793 Кбит/сек
Ширина : 1280 пикселей
Высота : 604 пикселя
Соотношение сторон : 2,119
Режим частоты кадров : Постоянный
Частота кадров : 23,976 кадра/сек
Цветовое пространство : YUV
Субдискретизация насыщенности : 4:2:0
Битовая глубина : 8 бит
Тип развёртки : Прогрессивная
Бит/(Пиксели*Кадры) : 0.366
Размер потока : 2,40 Гбайт (80%)
Заголовок : [2008] Адмиралъ [Телеверсия] [BDRip] [720p]
Библиотека кодирования : x264 core 84 r1400M 20fa784
Настройки программы : cabac=1 / ref=8 / deblock=1:-3:-3 / analyse=0x3:0x113 / me=umh / subme=9 / psy=1 / psy_rd=1.0:0.0 / mixed_ref=1 / me_range=32 / chroma_me=1 / trellis=2 / 8x8dct=1 / cqm=0 / deadzone=21,11 / fast_pskip=0 / chroma_qp_offset=-2 / threads=12 / sliced_threads=0 / nr=0 / decimate=0 / mbaff=0 / constrained_intra=0 / bframes=8 / b_pyramid=2 / b_adapt=2 / b_bias=0 / direct=3 / wpredb=1 / wpredp=2 / keyint=240 / keyint_min=24 / scenecut=40 / intra_refresh=0 / rc_lookahead=80 / rc=2pass / mbtree=1 / bitrate=6793 / ratetol=1.0 / qcomp=0.80 / qpmin=10 / qpmax=51 / qpstep=4 / cplxblur=20.0 / qblur=0.5 / vbv_maxrate=50000 / vbv_bufsize=62500 / ip_ratio=1.40 / aq=1:0.80 / pulldown=0 / nal_hrd=0
Язык : Russian
Default : Да
Forced : Нет
DURATION : 00:51:42.063000000
NUMBER_OF_FRAMES : 74375
NUMBER_OF_BYTES : 2635062993
_STATISTICS_WRITING_APP : mkvmerge v7.2.0 ('On Every Street') 32bit built on Sep 13 2014 15:42:11
_STATISTICS_WRITING_DATE_UTC : 2014-12-01 10:45:41
_STATISTICS_TAGS : BPS DURATION NUMBER_OF_FRAMES NUMBER_OF_BYTES
Аудио
Идентификатор : 2
Формат : DTS
Формат/Информация : Digital Theater Systems
Режим : 16
Параметр Endianness формата : Big
Идентификатор кодека : A_DTS
Продолжительность : 51 м.
Вид битрейта : Постоянный
Битрейт : 1509 Кбит/сек
Каналы : 6 каналов
Расположение каналов : Front: L C R, Side: L R, LFE
Частота : 48,0 КГц
Битовая глубина : 16 бит
Метод сжатия : С потерями
Размер потока : 558 Мбайт (18%)
Заголовок : Оригинальный
Язык : Russian
Default : Да
Forced : Нет
4 серия
Общее
Уникальный идентификатор : 244394384852602337621562997309260987317 (0xB7DCA57AA6EFFD65B3B067DDBC347BB5)
Полное имя : D:Адмиралъ [Телеверсия] [10 серий] [BDRip] [720p]Серия 04.mkv
Формат : Matroska
Версия формата : Version 4 / Version 2
Размер файла : 3,00 Гбайт
Продолжительность : 49 м.
Общий поток : 8593 Кбит/сек
Название фильма : Адмиралъ [Телеверсия] (2008) BDRip [720p]
Дата кодирования : UTC 2014-12-01 10:47:36
Программа кодирования : mkvmerge v7.2.0 ('On Every Street') 32bit built on Sep 13 2014 15:42:11
Библиотека кодирования : libebml v1.3.0 + libmatroska v1.4.1
DURATION : 00:49:58.582000000
NUMBER_OF_FRAMES : 281117
NUMBER_OF_BYTES : 565607488
_STATISTICS_WRITING_APP : mkvmerge v7.2.0 ('On Every Street') 32bit built on Sep 13 2014 15:42:11
_STATISTICS_WRITING_DATE_UTC : 2014-12-01 10:47:36
_STATISTICS_TAGS : BPS DURATION NUMBER_OF_FRAMES NUMBER_OF_BYTES
Видео
Идентификатор : 1
Формат : AVC
Формат/Информация : Advanced Video Codec
Профиль формата : High@L4.1
Параметр CABAC формата : Да
Параметр ReFrames формата : 8 кадров
Идентификатор кодека : V_MPEG4/ISO/AVC
Продолжительность : 49 м.
Битрейт : 7080 Кбит/сек
Ширина : 1280 пикселей
Высота : 604 пикселя
Соотношение сторон : 2,119
Режим частоты кадров : Постоянный
Частота кадров : 23,976 кадра/сек
Цветовое пространство : YUV
Субдискретизация насыщенности : 4:2:0
Битовая глубина : 8 бит
Тип развёртки : Прогрессивная
Бит/(Пиксели*Кадры) : 0.382
Размер потока : 2,41 Гбайт (80%)
Заголовок : [2008] Адмиралъ [Телеверсия] [BDRip] [720p]
Библиотека кодирования : x264 core 84 r1400M 20fa784
Настройки программы : cabac=1 / ref=8 / deblock=1:-3:-3 / analyse=0x3:0x113 / me=umh / subme=9 / psy=1 / psy_rd=1.0:0.0 / mixed_ref=1 / me_range=32 / chroma_me=1 / trellis=2 / 8x8dct=1 / cqm=0 / deadzone=21,11 / fast_pskip=0 / chroma_qp_offset=-2 / threads=12 / sliced_threads=0 / nr=0 / decimate=0 / mbaff=0 / constrained_intra=0 / bframes=8 / b_pyramid=2 / b_adapt=2 / b_bias=0 / direct=3 / wpredb=1 / wpredp=2 / keyint=240 / keyint_min=24 / scenecut=40 / intra_refresh=0 / rc_lookahead=80 / rc=2pass / mbtree=1 / bitrate=7080 / ratetol=1.0 / qcomp=0.80 / qpmin=10 / qpmax=51 / qpstep=4 / cplxblur=20.0 / qblur=0.5 / vbv_maxrate=50000 / vbv_bufsize=62500 / ip_ratio=1.40 / aq=1:0.80 / pulldown=0 / nal_hrd=0
Язык : Russian
Default : Да
Forced : Нет
DURATION : 00:49:58.501000000
NUMBER_OF_FRAMES : 71892
NUMBER_OF_BYTES : 2654383329
_STATISTICS_WRITING_APP : mkvmerge v7.2.0 ('On Every Street') 32bit built on Sep 13 2014 15:42:11
_STATISTICS_WRITING_DATE_UTC : 2014-12-01 10:47:36
_STATISTICS_TAGS : BPS DURATION NUMBER_OF_FRAMES NUMBER_OF_BYTES
Аудио
Идентификатор : 2
Формат : DTS
Формат/Информация : Digital Theater Systems
Режим : 16
Параметр Endianness формата : Big
Идентификатор кодека : A_DTS
Продолжительность : 49 м.
Вид битрейта : Постоянный
Битрейт : 1509 Кбит/сек
Каналы : 6 каналов
Расположение каналов : Front: L C R, Side: L R, LFE
Частота : 48,0 КГц
Битовая глубина : 16 бит
Метод сжатия : С потерями
Размер потока : 539 Мбайт (18%)
Заголовок : Оригинальный
Язык : Russian
Default : Да
Forced : Нет
5 серия
Общее
Уникальный идентификатор : 187282134436360642610119411268829260493 (0x8CE53A21A6AB46569F3BF66EC6472ACD)
Полное имя : D:Адмиралъ [Телеверсия] [10 серий] [BDRip] [720p]Серия 05.mkv
Формат : Matroska
Версия формата : Version 4 / Version 2
Размер файла : 3,00 Гбайт
Продолжительность : 50 м.
Общий поток : 8483 Кбит/сек
Название фильма : Адмиралъ [Телеверсия] (2008) BDRip [720p]
Дата кодирования : UTC 2014-12-01 10:49:21
Программа кодирования : mkvmerge v7.2.0 ('On Every Street') 32bit built on Sep 13 2014 15:42:11
Библиотека кодирования : libebml v1.3.0 + libmatroska v1.4.1
DURATION : 00:50:36.747000000
NUMBER_OF_FRAMES : 284697
NUMBER_OF_BYTES : 572810364
_STATISTICS_WRITING_APP : mkvmerge v7.2.0 ('On Every Street') 32bit built on Sep 13 2014 15:42:11
_STATISTICS_WRITING_DATE_UTC : 2014-12-01 10:49:21
_STATISTICS_TAGS : BPS DURATION NUMBER_OF_FRAMES NUMBER_OF_BYTES
Видео
Идентификатор : 1
Формат : AVC
Формат/Информация : Advanced Video Codec
Профиль формата : High@L4.1
Параметр CABAC формата : Да
Параметр ReFrames формата : 8 кадров
Идентификатор кодека : V_MPEG4/ISO/AVC
Продолжительность : 50 м.
Битрейт : 6972 Кбит/сек
Ширина : 1280 пикселей
Высота : 604 пикселя
Соотношение сторон : 2,119
Режим частоты кадров : Постоянный
Частота кадров : 23,976 кадра/сек
Цветовое пространство : YUV
Субдискретизация насыщенности : 4:2:0
Битовая глубина : 8 бит
Тип развёртки : Прогрессивная
Бит/(Пиксели*Кадры) : 0.376
Размер потока : 2,41 Гбайт (80%)
Заголовок : [2008] Адмиралъ [Телеверсия] [BDRip] [720p]
Библиотека кодирования : x264 core 84 r1400M 20fa784
Настройки программы : cabac=1 / ref=8 / deblock=1:-3:-3 / analyse=0x3:0x113 / me=umh / subme=9 / psy=1 / psy_rd=1.0:0.0 / mixed_ref=1 / me_range=32 / chroma_me=1 / trellis=2 / 8x8dct=1 / cqm=0 / deadzone=21,11 / fast_pskip=0 / chroma_qp_offset=-2 / threads=12 / sliced_threads=0 / nr=0 / decimate=0 / mbaff=0 / constrained_intra=0 / bframes=8 / b_pyramid=2 / b_adapt=2 / b_bias=0 / direct=3 / wpredb=1 / wpredp=2 / keyint=240 / keyint_min=24 / scenecut=40 / intra_refresh=0 / rc_lookahead=80 / rc=2pass / mbtree=1 / bitrate=6972 / ratetol=1.0 / qcomp=0.80 / qpmin=10 / qpmax=51 / qpstep=4 / cplxblur=20.0 / qblur=0.5 / vbv_maxrate=50000 / vbv_bufsize=62500 / ip_ratio=1.40 / aq=1:0.80 / pulldown=0 / nal_hrd=0
Язык : Russian
Default : Да
Forced : Нет
DURATION : 00:50:36.747000000
NUMBER_OF_FRAMES : 72809
NUMBER_OF_BYTES : 2646514929
_STATISTICS_WRITING_APP : mkvmerge v7.2.0 ('On Every Street') 32bit built on Sep 13 2014 15:42:11
_STATISTICS_WRITING_DATE_UTC : 2014-12-01 10:49:21
_STATISTICS_TAGS : BPS DURATION NUMBER_OF_FRAMES NUMBER_OF_BYTES
Аудио
Идентификатор : 2
Формат : DTS
Формат/Информация : Digital Theater Systems
Режим : 16
Параметр Endianness формата : Big
Идентификатор кодека : A_DTS
Продолжительность : 50 м.
Вид битрейта : Постоянный
Битрейт : 1509 Кбит/сек
Каналы : 6 каналов
Расположение каналов : Front: L C R, Side: L R, LFE
Частота : 48,0 КГц
Битовая глубина : 16 бит
Метод сжатия : С потерями
Размер потока : 546 Мбайт (18%)
Заголовок : Оригинальный
Язык : Russian
Default : Да
Forced : Нет
6 серия
Общее
Уникальный идентификатор : 222056071611928224088293400747865490506 (0xA70E719A95F1C493865FFE1E67BB444A)
Полное имя : D:Адмиралъ [Телеверсия] [10 серий] [BDRip] [720p]Серия 06.mkv
Формат : Matroska
Версия формата : Version 4 / Version 2
Размер файла : 3,00 Гбайт
Продолжительность : 49 м.
Общий поток : 8727 Кбит/сек
Название фильма : Адмиралъ [Телеверсия] (2008) BDRip [720p]
Дата кодирования : UTC 2014-12-01 10:51:14
Программа кодирования : mkvmerge v7.2.0 ('On Every Street') 32bit built on Sep 13 2014 15:42:11
Библиотека кодирования : libebml v1.3.0 + libmatroska v1.4.1
DURATION : 00:49:11.894000000
NUMBER_OF_FRAMES : 276745
NUMBER_OF_BYTES : 556811024
_STATISTICS_WRITING_APP : mkvmerge v7.2.0 ('On Every Street') 32bit built on Sep 13 2014 15:42:11
_STATISTICS_WRITING_DATE_UTC : 2014-12-01 10:51:14
_STATISTICS_TAGS : BPS DURATION NUMBER_OF_FRAMES NUMBER_OF_BYTES
Видео
Идентификатор : 1
Формат : AVC
Формат/Информация : Advanced Video Codec
Профиль формата : High@L4.1
Параметр CABAC формата : Да
Параметр ReFrames формата : 8 кадров
Идентификатор кодека : V_MPEG4/ISO/AVC
Продолжительность : 49 м.
Битрейт : 7216 Кбит/сек
Ширина : 1280 пикселей
Высота : 604 пикселя
Соотношение сторон : 2,119
Режим частоты кадров : Постоянный
Частота кадров : 23,976 кадра/сек
Цветовое пространство : YUV
Субдискретизация насыщенности : 4:2:0
Битовая глубина : 8 бит
Тип развёртки : Прогрессивная
Бит/(Пиксели*Кадры) : 0.389
Размер потока : 2,42 Гбайт (81%)
Заголовок : [2008] Адмиралъ [Телеверсия] [BDRip] [720p]
Библиотека кодирования : x264 core 84 r1400M 20fa784
Настройки программы : cabac=1 / ref=8 / deblock=1:-3:-3 / analyse=0x3:0x113 / me=umh / subme=9 / psy=1 / psy_rd=1.0:0.0 / mixed_ref=1 / me_range=32 / chroma_me=1 / trellis=2 / 8x8dct=1 / cqm=0 / deadzone=21,11 / fast_pskip=0 / chroma_qp_offset=-2 / threads=12 / sliced_threads=0 / nr=0 / decimate=0 / mbaff=0 / constrained_intra=0 / bframes=8 / b_pyramid=2 / b_adapt=2 / b_bias=0 / direct=3 / wpredb=1 / wpredp=2 / keyint=240 / keyint_min=24 / scenecut=40 / intra_refresh=0 / rc_lookahead=80 / rc=2pass / mbtree=1 / bitrate=7216 / ratetol=1.0 / qcomp=0.80 / qpmin=10 / qpmax=51 / qpstep=4 / cplxblur=20.0 / qblur=0.5 / vbv_maxrate=50000 / vbv_bufsize=62500 / ip_ratio=1.40 / aq=1:0.80 / pulldown=0 / nal_hrd=0
Язык : Russian
Default : Да
Forced : Нет
DURATION : 00:49:11.912000000
NUMBER_OF_FRAMES : 70775
NUMBER_OF_BYTES : 2662466424
_STATISTICS_WRITING_APP : mkvmerge v7.2.0 ('On Every Street') 32bit built on Sep 13 2014 15:42:11
_STATISTICS_WRITING_DATE_UTC : 2014-12-01 10:51:14
_STATISTICS_TAGS : BPS DURATION NUMBER_OF_FRAMES NUMBER_OF_BYTES
Аудио
Идентификатор : 2
Формат : DTS
Формат/Информация : Digital Theater Systems
Режим : 16
Параметр Endianness формата : Big
Идентификатор кодека : A_DTS
Продолжительность : 49 м.
Вид битрейта : Постоянный
Битрейт : 1509 Кбит/сек
Каналы : 6 каналов
Расположение каналов : Front: L C R, Side: L R, LFE
Частота : 48,0 КГц
Битовая глубина : 16 бит
Метод сжатия : С потерями
Размер потока : 531 Мбайт (17%)
Заголовок : Оригинальный
Язык : Russian
Default : Да
Forced : Нет
7 серия
Общее
Уникальный идентификатор : 238453088163264710933769373090000187630 (0xB36464EFB3126A9A91A9EA360068B0EE)
Полное имя : D:Адмиралъ [Телеверсия] [10 серий] [BDRip] [720p]Серия 07.mkv
Формат : Matroska
Версия формата : Version 4 / Version 2
Размер файла : 3,00 Гбайт
Продолжительность : 50 м.
Общий поток : 8475 Кбит/сек
Название фильма : Адмиралъ [Телеверсия] (2008) BDRip [720p]
Дата кодирования : UTC 2014-12-01 10:53:13
Программа кодирования : mkvmerge v7.2.0 ('On Every Street') 32bit built on Sep 13 2014 15:42:11
Библиотека кодирования : libebml v1.3.0 + libmatroska v1.4.1
DURATION : 00:50:38.955000000
NUMBER_OF_FRAMES : 284909
NUMBER_OF_BYTES : 573236908
_STATISTICS_WRITING_APP : mkvmerge v7.2.0 ('On Every Street') 32bit built on Sep 13 2014 15:42:11
_STATISTICS_WRITING_DATE_UTC : 2014-12-01 10:53:13
_STATISTICS_TAGS : BPS DURATION NUMBER_OF_FRAMES NUMBER_OF_BYTES
Видео
Идентификатор : 1
Формат : AVC
Формат/Информация : Advanced Video Codec
Профиль формата : High@L4.1
Параметр CABAC формата : Да
Параметр ReFrames формата : 8 кадров
Идентификатор кодека : V_MPEG4/ISO/AVC
Продолжительность : 50 м.
Битрейт : 6966 Кбит/сек
Ширина : 1280 пикселей
Высота : 604 пикселя
Соотношение сторон : 2,119
Режим частоты кадров : Постоянный
Частота кадров : 23,976 кадра/сек
Цветовое пространство : YUV
Субдискретизация насыщенности : 4:2:0
Битовая глубина : 8 бит
Тип развёртки : Прогрессивная
Бит/(Пиксели*Кадры) : 0.376
Размер потока : 2,40 Гбайт (80%)
Заголовок : [2008] Адмиралъ [Телеверсия] [BDRip] [720p]
Библиотека кодирования : x264 core 84 r1400M 20fa784
Настройки программы : cabac=1 / ref=8 / deblock=1:-3:-3 / analyse=0x3:0x113 / me=umh / subme=9 / psy=1 / psy_rd=1.0:0.0 / mixed_ref=1 / me_range=32 / chroma_me=1 / trellis=2 / 8x8dct=1 / cqm=0 / deadzone=21,11 / fast_pskip=0 / chroma_qp_offset=-2 / threads=12 / sliced_threads=0 / nr=0 / decimate=0 / mbaff=0 / constrained_intra=0 / bframes=8 / b_pyramid=2 / b_adapt=2 / b_bias=0 / direct=3 / wpredb=1 / wpredp=2 / keyint=240 / keyint_min=24 / scenecut=40 / intra_refresh=0 / rc_lookahead=80 / rc=2pass / mbtree=1 / bitrate=6966 / ratetol=1.0 / qcomp=0.80 / qpmin=10 / qpmax=51 / qpstep=4 / cplxblur=20.0 / qblur=0.5 / vbv_maxrate=50000 / vbv_bufsize=62500 / ip_ratio=1.40 / aq=1:0.80 / pulldown=0 / nal_hrd=0
Язык : Russian
Default : Да
Forced : Нет
DURATION : 00:50:38.999000000
NUMBER_OF_FRAMES : 72863
NUMBER_OF_BYTES : 2645422745
_STATISTICS_WRITING_APP : mkvmerge v7.2.0 ('On Every Street') 32bit built on Sep 13 2014 15:42:11
_STATISTICS_WRITING_DATE_UTC : 2014-12-01 10:53:13
_STATISTICS_TAGS : BPS DURATION NUMBER_OF_FRAMES NUMBER_OF_BYTES
Аудио
Идентификатор : 2
Формат : DTS
Формат/Информация : Digital Theater Systems
Режим : 16
Параметр Endianness формата : Big
Идентификатор кодека : A_DTS
Продолжительность : 50 м.
Вид битрейта : Постоянный
Битрейт : 1509 Кбит/сек
Каналы : 6 каналов
Расположение каналов : Front: L C R, Side: L R, LFE
Частота : 48,0 КГц
Битовая глубина : 16 бит
Метод сжатия : С потерями
Размер потока : 547 Мбайт (18%)
Заголовок : Оригинальный
Язык : Russian
Default : Да
Forced : Нет
8 серия
Общее
Уникальный идентификатор : 195320950449122651246813199815821525489 (0x92F1725C7A90D731B08AF4C7A66C81F1)
Полное имя : D:Адмиралъ [Телеверсия] [10 серий] [BDRip] [720p]Серия 08.mkv
Формат : Matroska
Версия формата : Version 4 / Version 2
Размер файла : 3,00 Гбайт
Продолжительность : 50 м.
Общий поток : 8565 Кбит/сек
Название фильма : Адмиралъ [Телеверсия] (2008) BDRip [720p]
Дата кодирования : UTC 2014-12-01 10:55:18
Программа кодирования : mkvmerge v7.2.0 ('On Every Street') 32bit built on Sep 13 2014 15:42:11
Библиотека кодирования : libebml v1.3.0 + libmatroska v1.4.1
DURATION : 00:50:06.966000000
NUMBER_OF_FRAMES : 281906
NUMBER_OF_BYTES : 567194872
_STATISTICS_WRITING_APP : mkvmerge v7.2.0 ('On Every Street') 32bit built on Sep 13 2014 15:42:11
_STATISTICS_WRITING_DATE_UTC : 2014-12-01 10:55:18
_STATISTICS_TAGS : BPS DURATION NUMBER_OF_FRAMES NUMBER_OF_BYTES
Видео
Идентификатор : 1
Формат : AVC
Формат/Информация : Advanced Video Codec
Профиль формата : High@L4.1
Параметр CABAC формата : Да
Параметр ReFrames формата : 8 кадров
Идентификатор кодека : V_MPEG4/ISO/AVC
Продолжительность : 50 м.
Битрейт : 7056 Кбит/сек
Ширина : 1280 пикселей
Высота : 604 пикселя
Соотношение сторон : 2,119
Режим частоты кадров : Постоянный
Частота кадров : 23,976 кадра/сек
Цветовое пространство : YUV
Субдискретизация насыщенности : 4:2:0
Битовая глубина : 8 бит
Тип развёртки : Прогрессивная
Бит/(Пиксели*Кадры) : 0.381
Размер потока : 2,41 Гбайт (80%)
Заголовок : [2008] Адмиралъ [Телеверсия] [BDRip] [720p]
Библиотека кодирования : x264 core 84 r1400M 20fa784
Настройки программы : cabac=1 / ref=8 / deblock=1:-3:-3 / analyse=0x3:0x113 / me=umh / subme=9 / psy=1 / psy_rd=1.0:0.0 / mixed_ref=1 / me_range=32 / chroma_me=1 / trellis=2 / 8x8dct=1 / cqm=0 / deadzone=21,11 / fast_pskip=0 / chroma_qp_offset=-2 / threads=12 / sliced_threads=0 / nr=0 / decimate=0 / mbaff=0 / constrained_intra=0 / bframes=8 / b_pyramid=2 / b_adapt=2 / b_bias=0 / direct=3 / wpredb=1 / wpredp=2 / keyint=240 / keyint_min=24 / scenecut=40 / intra_refresh=0 / rc_lookahead=80 / rc=2pass / mbtree=1 / bitrate=7056 / ratetol=1.0 / qcomp=0.80 / qpmin=10 / qpmax=51 / qpstep=4 / cplxblur=20.0 / qblur=0.5 / vbv_maxrate=50000 / vbv_bufsize=62500 / ip_ratio=1.40 / aq=1:0.80 / pulldown=0 / nal_hrd=0
Язык : Russian
Default : Да
Forced : Нет
DURATION : 00:50:06.926000000
NUMBER_OF_FRAMES : 72094
NUMBER_OF_BYTES : 2651359338
_STATISTICS_WRITING_APP : mkvmerge v7.2.0 ('On Every Street') 32bit built on Sep 13 2014 15:42:11
_STATISTICS_WRITING_DATE_UTC : 2014-12-01 10:55:18
_STATISTICS_TAGS : BPS DURATION NUMBER_OF_FRAMES NUMBER_OF_BYTES
Аудио
Идентификатор : 2
Формат : DTS
Формат/Информация : Digital Theater Systems
Режим : 16
Параметр Endianness формата : Big
Идентификатор кодека : A_DTS
Продолжительность : 50 м.
Вид битрейта : Постоянный
Битрейт : 1509 Кбит/сек
Каналы : 6 каналов
Расположение каналов : Front: L C R, Side: L R, LFE
Частота : 48,0 КГц
Битовая глубина : 16 бит
Метод сжатия : С потерями
Размер потока : 541 Мбайт (18%)
Заголовок : Оригинальный
Язык : Russian
Default : Да
Forced : Нет
9 серия
Общее
Уникальный идентификатор : 207665268172967293157082121696185664416 (0x9C3AE036F137D90AA8DA1B90DDF3C3A0)
Полное имя : D:Адмиралъ [Телеверсия] [10 серий] [BDRip] [720p]Серия 09.mkv
Формат : Matroska
Версия формата : Version 4 / Version 2
Размер файла : 3,00 Гбайт
Продолжительность : 50 м.
Общий поток : 8438 Кбит/сек
Название фильма : Адмиралъ [Телеверсия] (2008) BDRip [720p]
Дата кодирования : UTC 2014-12-01 10:57:25
Программа кодирования : mkvmerge v7.2.0 ('On Every Street') 32bit built on Sep 13 2014 15:42:11
Библиотека кодирования : libebml v1.3.0 + libmatroska v1.4.1
DURATION : 00:50:52.267000000
NUMBER_OF_FRAMES : 286153
NUMBER_OF_BYTES : 575739920
_STATISTICS_WRITING_APP : mkvmerge v7.2.0 ('On Every Street') 32bit built on Sep 13 2014 15:42:11
_STATISTICS_WRITING_DATE_UTC : 2014-12-01 10:57:25
_STATISTICS_TAGS : BPS DURATION NUMBER_OF_FRAMES NUMBER_OF_BYTES
Видео
Идентификатор : 1
Формат : AVC
Формат/Информация : Advanced Video Codec
Профиль формата : High@L4.1
Параметр CABAC формата : Да
Параметр ReFrames формата : 8 кадров
Идентификатор кодека : V_MPEG4/ISO/AVC
Продолжительность : 50 м.
Битрейт : 6928 Кбит/сек
Ширина : 1280 пикселей
Высота : 604 пикселя
Соотношение сторон : 2,119
Режим частоты кадров : Постоянный
Частота кадров : 23,976 кадра/сек
Цветовое пространство : YUV
Субдискретизация насыщенности : 4:2:0
Битовая глубина : 8 бит
Тип развёртки : Прогрессивная
Бит/(Пиксели*Кадры) : 0.374
Размер потока : 2,40 Гбайт (80%)
Заголовок : [2008] Адмиралъ [Телеверсия] [BDRip] [720p]
Библиотека кодирования : x264 core 84 r1400M 20fa784
Настройки программы : cabac=1 / ref=8 / deblock=1:-3:-3 / analyse=0x3:0x113 / me=umh / subme=9 / psy=1 / psy_rd=1.0:0.0 / mixed_ref=1 / me_range=32 / chroma_me=1 / trellis=2 / 8x8dct=1 / cqm=0 / deadzone=21,11 / fast_pskip=0 / chroma_qp_offset=-2 / threads=12 / sliced_threads=0 / nr=0 / decimate=0 / mbaff=0 / constrained_intra=0 / bframes=8 / b_pyramid=2 / b_adapt=2 / b_bias=0 / direct=3 / wpredb=1 / wpredp=2 / keyint=240 / keyint_min=24 / scenecut=40 / intra_refresh=0 / rc_lookahead=80 / rc=2pass / mbtree=1 / bitrate=6928 / ratetol=1.0 / qcomp=0.80 / qpmin=10 / qpmax=51 / qpstep=4 / cplxblur=20.0 / qblur=0.5 / vbv_maxrate=50000 / vbv_bufsize=62500 / ip_ratio=1.40 / aq=1:0.80 / pulldown=0 / nal_hrd=0
Язык : Russian
Default : Да
Forced : Нет
DURATION : 00:50:52.263000000
NUMBER_OF_FRAMES : 73181
NUMBER_OF_BYTES : 2642662338
_STATISTICS_WRITING_APP : mkvmerge v7.2.0 ('On Every Street') 32bit built on Sep 13 2014 15:42:11
_STATISTICS_WRITING_DATE_UTC : 2014-12-01 10:57:25
_STATISTICS_TAGS : BPS DURATION NUMBER_OF_FRAMES NUMBER_OF_BYTES
Аудио
Идентификатор : 2
Формат : DTS
Формат/Информация : Digital Theater Systems
Режим : 16
Параметр Endianness формата : Big
Идентификатор кодека : A_DTS
Продолжительность : 50 м.
Вид битрейта : Постоянный
Битрейт : 1509 Кбит/сек
Каналы : 6 каналов
Расположение каналов : Front: L C R, Side: L R, LFE
Частота : 48,0 КГц
Битовая глубина : 16 бит
Метод сжатия : С потерями
Размер потока : 549 Мбайт (18%)
Заголовок : Оригинальный
Язык : Russian
Default : Да
Forced : Нет
10 серия
Общее
Уникальный идентификатор : 173613377461758632275941094249945326838 (0x829CB861A5B983B6B36E43B91D9364F6)
Полное имя : D:Адмиралъ [Телеверсия] [10 серий] [BDRip] [720p]Серия 10.mkv
Формат : Matroska
Версия формата : Version 4 / Version 2
Размер файла : 3,00 Гбайт
Продолжительность : 55 м.
Общий поток : 7786 Кбит/сек
Название фильма : Адмиралъ [Телеверсия] (2008) BDRip [720p]
Дата кодирования : UTC 2014-12-01 10:59:27
Программа кодирования : mkvmerge v7.2.0 ('On Every Street') 32bit built on Sep 13 2014 15:42:11
Библиотека кодирования : libebml v1.3.0 + libmatroska v1.4.1
DURATION : 00:55:07.744000000
NUMBER_OF_FRAMES : 310102
NUMBER_OF_BYTES : 623925224
_STATISTICS_WRITING_APP : mkvmerge v7.2.0 ('On Every Street') 32bit built on Sep 13 2014 15:42:11
_STATISTICS_WRITING_DATE_UTC : 2014-12-01 10:59:27
_STATISTICS_TAGS : BPS DURATION NUMBER_OF_FRAMES NUMBER_OF_BYTES
Видео
Идентификатор : 1
Формат : AVC
Формат/Информация : Advanced Video Codec
Профиль формата : High@L4.1
Параметр CABAC формата : Да
Параметр ReFrames формата : 8 кадров
Идентификатор кодека : V_MPEG4/ISO/AVC
Продолжительность : 55 м.
Битрейт : 6277 Кбит/сек
Ширина : 1280 пикселей
Высота : 604 пикселя
Соотношение сторон : 2,119
Режим частоты кадров : Постоянный
Частота кадров : 23,976 кадра/сек
Цветовое пространство : YUV
Субдискретизация насыщенности : 4:2:0
Битовая глубина : 8 бит
Тип развёртки : Прогрессивная
Бит/(Пиксели*Кадры) : 0.339
Размер потока : 2,36 Гбайт (79%)
Заголовок : [2008] Адмиралъ [Телеверсия] [BDRip] [720p]
Библиотека кодирования : x264 core 84 r1400M 20fa784
Настройки программы : cabac=1 / ref=8 / deblock=1:-3:-3 / analyse=0x3:0x113 / me=umh / subme=9 / psy=1 / psy_rd=1.0:0.0 / mixed_ref=1 / me_range=32 / chroma_me=1 / trellis=2 / 8x8dct=1 / cqm=0 / deadzone=21,11 / fast_pskip=0 / chroma_qp_offset=-2 / threads=12 / sliced_threads=0 / nr=0 / decimate=0 / mbaff=0 / constrained_intra=0 / bframes=8 / b_pyramid=2 / b_adapt=2 / b_bias=0 / direct=3 / wpredb=1 / wpredp=2 / keyint=240 / keyint_min=24 / scenecut=40 / intra_refresh=0 / rc_lookahead=80 / rc=2pass / mbtree=1 / bitrate=6277 / ratetol=1.0 / qcomp=0.80 / qpmin=10 / qpmax=51 / qpstep=4 / cplxblur=20.0 / qblur=0.5 / vbv_maxrate=50000 / vbv_bufsize=62500 / ip_ratio=1.40 / aq=1:0.80 / pulldown=0 / nal_hrd=0
Язык : Russian
Default : Да
Forced : Нет
DURATION : 00:55:07.685000000
NUMBER_OF_FRAMES : 79305
NUMBER_OF_BYTES : 2594549796
_STATISTICS_WRITING_APP : mkvmerge v7.2.0 ('On Every Street') 32bit built on Sep 13 2014 15:42:11
_STATISTICS_WRITING_DATE_UTC : 2014-12-01 10:59:27
_STATISTICS_TAGS : BPS DURATION NUMBER_OF_FRAMES NUMBER_OF_BYTES
Аудио
Идентификатор : 2
Формат : DTS
Формат/Информация : Digital Theater Systems
Режим : 16
Параметр Endianness формата : Big
Идентификатор кодека : A_DTS
Продолжительность : 55 м.
Вид битрейта : Постоянный
Битрейт : 1509 Кбит/сек
Каналы : 6 каналов
Расположение каналов : Front: L C R, Side: L R, LFE
Частота : 48,0 КГц
Битовая глубина : 16 бит
Метод сжатия : С потерями
Размер потока : 595 Мбайт (19%)
Заголовок : Оригинальный
Язык : Russian
Default : Да
Forced : Нет



   Похожие торренты   Торрент   Размер 
В этой теме нет новых непрочитанных сообщений. Адмиралъ (2008) BDRip от HQ-ViDEO | Телеверсия

16 | 12

8.74 ГБ

В этой теме нет новых непрочитанных сообщений. Адмирал / Адмиралъ [Телеверсия] (2008) BDRip от HQCLUB

216 | 38

8.75 ГБ

В этой теме нет новых непрочитанных сообщений. Адмиралъ (2008) BDRip 720p

1016 | 30

4.37 ГБ

В этой теме нет новых непрочитанных сообщений. Адмиралъ (2008) BDRip 720p от FreeHD

1 | 2

6.54 ГБ

В этой теме нет новых непрочитанных сообщений. Адмиралъ [01-10 из 10] (2008) BDRip 720p от HD Club

1 | 5

29.99 ГБ

В этой теме нет новых непрочитанных сообщений. Адмиралъ [01-10 из 10] (2008) BDRip-AVC

234 | 114

14.09 ГБ

В этой теме нет новых непрочитанных сообщений. Адмирал / Адмиралъ (2008) BDRip 720p by R.G. "48 Seconds" от Zlofenix

56 | 20

6.8 ГБ




Вы не можете начинать темы
Вы не можете отвечать на сообщения
Вы не можете редактировать свои сообщения
Вы не можете удалять свои сообщения
Вы не можете добавлять вложения

Перейти:  
Для Мосгорсуда, Роскомнадзора и рекламодателей: mosgorsud-torrent[собачка]yandex.ru
 Вход
ppkBB3cker v.2 © 2008-2014 @ PPK
[ Time : 0.721s | 17 Queries | GZIP : Off ]

Торрент трекер RUTOR.IN, Не можете зайти на rutor.org? Какой новый адрес рутор? Какое зеркало рутор? Не работает rutor.org и зеркала? Тогда наш торрент специально для вас. Rutor.in неофициальное зеркало rutor. В случае если у Вас заблокирован rutor или вдруг Вы не можете на него зайти, то Вы без труда сможете скачать бесплатно и без рекламы последние новинки кино, игр, сериалов и прочего у нас, на Rutor.in. Не нужно использовать прокси, чтобы зайти на рутор, достаточно воспользоваться нашим ресурсом. Все новые фильмы, игры, сериалы, книги и музыка за 2013 и 2014 годы через торрент бесплатно. Скачивайте фильмы в хорошем качестве, игры для пк, xbox, playstation без регистрации. У нас вы найдете новые Зарубежные сериалы и Русские сериалы 2013, 2014, 2015 годов. Оставайтесь с нами, качайте любимые фильмы, игры, сериалы, книги и музыку.
cron