img image001 image001 image001 image001 image001 image001 image001 image001 image001 image001 image001 image001 image001 image001 image001

Planets Sun Sun Sun
Статистика раздачи
Автор: Nickolas3434 | Размер: 1.57 ГБ | Добавлен: 09 дек 2014
Раздают: 126    Качают: 41
Скачать торрент
Скачать торрент
Описание торрента

СообщениеДобавлено: 09 дек 2014 

Информация о фильме
Оригинальное название: Викинг
Год выхода: 2006
Жанр: Боевик
Режиссер: Станислав Мареев
В ролях: Евгений Сидихин, Александр Баширов, Николай Чиндяйкин, Андрей Федорцов, Александр Песков, Анна Лутцева, Евгений Ганелин, Юрий Ицков, Владимир Матвеев, Виктор Смирнов, Андрей Иванов, Алексей Девотченко, Сергей Русскин, Сергей Грачев, Николай Годовиков, Самвел Мужикян, Андрей Сиганов, Денис Моисеев, Алексей Кашников, Максим Бритвенков, Юрий Лазарев, Иван Лаптев, Александр Лосев, Андрей Семин
О фильме:
Середина 1990. Один из гарнизонов Российского флота. Командир БЧ атомной подводной лодки Сергей Шведов (Евгений СИДИХИН) несет службу на земле, не зная, доведется ли еще его лодке выйти в боевой поход. Неожиданно с ним встречается представитель спецслужб России полковник Скобелев. Задание, которое дает Скобелев Шведову, кажется простым и парадоксальным одновременно – во время дежурства на КПП Сергей должен выполнять свои служебные обязанности как положено, а не так, как оно повелось в последние годы. Ничто, казалось бы, не предвещает того кровавого хаоса, в который погрузится гарнизонный городок, и в котором Сергею придется применить все свои спортивные и боевые навыки, просто чтобы выжить. Выжить и отомстить за своих погибших друзей. Ситуация становится безвыходной, когда погибает полковник Скобелев, и становится понятно, что в дело замешан кто-то из самого высокого начальства. Шведову придется сражаться в одиночку. Помощи ждать неоткуда. На кону – миллионы долларов и жизни близких ему людей. Удастся ли Викингу, как прозвали его друзья, победить в неравной борьбе?
Наше время. Молодой следователь Денис Шевельков переводится в СК маленького городка, где живет его невеста. Ему сразу поручают дело об убийстве офицера морфлота. Выясняется, что покойный занимался контрабандой оружия в связке с местной мафией, и бандиты убили его, заподозрив в подрыве склада с товаром. Но на самом деле склад взорвал неуловимый борец со злом Викинг, которого все считают давно погибшим, а он продолжает бой с бандитизмом своими методами. Викинг и Шевельков атакуют мафию с двух сторон: первый действует своими старыми методами, тайно, по-партизански, не надеясь на законное правосудие, творит его своими руками, второй, молодой идеалист, следует букве закона. И пока они борются порознь, их усилия тщетны – слишком крепка мафиозная сеть, которую поддерживают и коррумпированная полиция, и продажные военные. Но настанет момент, когда наши герои встанут плечом к плечу и, преодолев все противоречия, многому научившись друг у друга, сокрушат своих врагов.

Студия: Россия
Продолжительность: 8 x ~ 00:45:00
Перевод: Не требуется
Файл
Качество: DVDRip [S01], WEB-DLRip [S02] | КПК
Видео: MPEG-4 AVC (x264), 640x352 [S01], 640x360 [S02], ~500 kbps, 25.000 fps
Аудио: AAC LC, 44.1 KHz, 2 ch, 128 Kbps
Субтитры: Нет
Семпл

Complete name : E:KinoViking.AVC.KPK.GeneralfilmViking.S01.2006.DVDRip.AVC.KPK.GeneralfilmViking.s01e03.2006.DVDRip.AVC.KPK.Generalfilm.mp4
Format : MPEG-4
Format profile : Base Media
Codec ID : isom
File size : 205 MiB
Duration : 45mn 27s
Overall bit rate mode : Variable
Overall bit rate : 631 Kbps
Encoded date : UTC 2014-11-28 13:20:09
Tagged date : UTC 2014-11-28 13:20:09
Video
ID : 1
Format : AVC
Format/Info : Advanced Video Codec
Format profile : High@L4.1
Format settings, CABAC : Yes
Format settings, ReFrames : 8 frames
Codec ID : avc1
Codec ID/Info : Advanced Video Coding
Duration : 45mn 27s
Bit rate : 500 Kbps
Maximum bit rate : 3 735 Kbps
Width : 640 pixels
Height : 352 pixels
Display aspect ratio : 16:9
Frame rate mode : Constant
Frame rate : 25.000 fps
Color space : YUV
Chroma subsampling : 4:2:0
Bit depth : 8 bits
Scan type : Progressive
Bits/(Pixel*Frame) : 0.089
Stream size : 162 MiB (79%)
Writing library : x264 core 130 r2273 b3065e6
Encoding settings : cabac=1 / ref=8 / deblock=1:-2:-2 / analyse=0x3:0x133 / me=umh / subme=10 / psy=1 / psy_rd=1.00:0.00 / mixed_ref=1 / me_range=24 / chroma_me=1 / trellis=2 / 8x8dct=1 / cqm=0 / deadzone=21,11 / fast_pskip=1 / chroma_qp_offset=-2 / threads=12 / lookahead_threads=2 / sliced_threads=0 / nr=0 / decimate=0 / interlaced=0 / bluray_compat=0 / constrained_intra=0 / bframes=8 / b_pyramid=2 / b_adapt=2 / b_bias=0 / direct=3 / weightb=1 / open_gop=0 / weightp=2 / keyint=250 / keyint_min=126 / scenecut=40 / intra_refresh=0 / rc_lookahead=40 / rc=2pass / mbtree=1 / bitrate=500 / ratetol=1.0 / qcomp=0.60 / qpmin=0 / qpmax=69 / qpstep=4 / cplxblur=20.0 / qblur=0.5 / ip_ratio=1.40 / aq=1:1.00
Encoded date : UTC 2014-11-28 13:20:09
Tagged date : UTC 2014-11-28 13:20:13
Audio
ID : 2
Format : AAC
Format/Info : Advanced Audio Codec
Format profile : LC
Codec ID : 40
Duration : 45mn 26s
Bit rate mode : Variable
Bit rate : 128 Kbps
Maximum bit rate : 148 Kbps
Channel count : 2 channels
Channel positions : Front: L R
Sampling rate : 48.0 KHz
Compression mode : Lossy
Delay relative to video : 120ms
Stream size : 41.6 MiB (20%)
Encoded date : UTC 2014-11-28 13:20:12
Tagged date : UTC 2014-11-28 13:20:13

Complete name : E:KinoViking.AVC.KPK.GeneralfilmViking.S02.2014.WEB-DLRip.AVC.KPK.GeneralfilmViking.s02e03.2014.WEB-DLRip.AVC.KPK.Generalfilm.mp4
Format : MPEG-4
Format profile : Base Media
Codec ID : isom
File size : 202 MiB
Duration : 44mn 38s
Overall bit rate mode : Variable
Overall bit rate : 632 Kbps
Encoded date : UTC 2014-11-30 09:10:19
Tagged date : UTC 2014-11-30 09:10:19
Video
ID : 1
Format : AVC
Format/Info : Advanced Video Codec
Format profile : High@L4.1
Format settings, CABAC : Yes
Format settings, ReFrames : 8 frames
Codec ID : avc1
Codec ID/Info : Advanced Video Coding
Duration : 44mn 38s
Bit rate : 500 Kbps
Maximum bit rate : 3 910 Kbps
Width : 640 pixels
Height : 360 pixels
Display aspect ratio : 16:9
Frame rate mode : Constant
Frame rate : 25.000 fps
Color space : YUV
Chroma subsampling : 4:2:0
Bit depth : 8 bits
Scan type : Progressive
Bits/(Pixel*Frame) : 0.087
Stream size : 160 MiB (79%)
Writing library : x264 core 130 r2273 b3065e6
Encoding settings : cabac=1 / ref=8 / deblock=1:-2:-2 / analyse=0x3:0x133 / me=umh / subme=10 / psy=1 / psy_rd=1.00:0.00 / mixed_ref=1 / me_range=24 / chroma_me=1 / trellis=2 / 8x8dct=1 / cqm=0 / deadzone=21,11 / fast_pskip=1 / chroma_qp_offset=-2 / threads=12 / lookahead_threads=2 / sliced_threads=0 / nr=0 / decimate=0 / interlaced=0 / bluray_compat=0 / constrained_intra=0 / bframes=8 / b_pyramid=2 / b_adapt=2 / b_bias=0 / direct=3 / weightb=1 / open_gop=0 / weightp=2 / keyint=250 / keyint_min=126 / scenecut=40 / intra_refresh=0 / rc_lookahead=40 / rc=2pass / mbtree=1 / bitrate=500 / ratetol=1.0 / qcomp=0.60 / qpmin=0 / qpmax=69 / qpstep=4 / cplxblur=20.0 / qblur=0.5 / ip_ratio=1.40 / aq=1:1.00
Encoded date : UTC 2014-11-30 09:10:19
Tagged date : UTC 2014-11-30 09:10:23
Audio
ID : 2
Format : AAC
Format/Info : Advanced Audio Codec
Format profile : LC
Codec ID : 40
Duration : 44mn 38s
Bit rate mode : Variable
Bit rate : 128 Kbps
Maximum bit rate : 152 Kbps
Channel count : 2 channels
Channel positions : Front: L R
Sampling rate : 48.0 KHz
Compression mode : Lossy
Delay relative to video : 80ms
Stream size : 40.9 MiB (20%)
Encoded date : UTC 2014-11-30 09:10:22
Tagged date : UTC 2014-11-30 09:10:23

Релиз от:



   Похожие торренты   Торрент   Размер 
В этой теме нет новых непрочитанных сообщений. Викинг [01-04 из 04] (2006) DVDRip от Generalfilm

40 | 8

1.37 ГБ

В этой теме нет новых непрочитанных сообщений. Викинг 2 [01-04 из 04] (2014) WEB-DLRip от Files-x

101 | 13

2.14 ГБ

В этой теме нет новых непрочитанных сообщений. Викинг [02х01-04 из 04] (2014) WEB-DLRip-AVC от ExKinoRay

40 | 11

2.93 ГБ

В этой теме нет новых непрочитанных сообщений. Викинг [02x04 из 04] (2014) WEB-DLRip от ExKinoRay

23 | 9

2.27 ГБ

В этой теме нет новых непрочитанных сообщений. Викинг 2 [01 из 04] (2014) SATRip от Files-x

1396 | 209

2.15 ГБ

В этой теме нет новых непрочитанных сообщений. Викинг 2 [01-04 из 04] (2014) WEB-DL 1080p от ExKinoRay

97 | 7

5.15 ГБ

В этой теме нет новых непрочитанных сообщений. Викинг 2 [01-04 из 04] (2014) WEB-DL 720p от ExKinoRay

98 | 10

2.44 ГБ




Вы не можете начинать темы
Вы не можете отвечать на сообщения
Вы не можете редактировать свои сообщения
Вы не можете удалять свои сообщения
Вы не можете добавлять вложения

Перейти:  
Для Мосгорсуда, Роскомнадзора и рекламодателей: mosgorsud-torrent[собачка]yandex.ru
 Вход
ppkBB3cker v.2 © 2008-2014 @ PPK
[ Time : 3.143s | 16 Queries | GZIP : On ]

Торрент трекер RUTOR.IN, Не можете зайти на rutor.org? Какой новый адрес рутор? Какое зеркало рутор? Не работает rutor.org и зеркала? Тогда наш торрент специально для вас. Rutor.in неофициальное зеркало rutor. В случае если у Вас заблокирован rutor или вдруг Вы не можете на него зайти, то Вы без труда сможете скачать бесплатно и без рекламы последние новинки кино, игр, сериалов и прочего у нас, на Rutor.in. Не нужно использовать прокси, чтобы зайти на рутор, достаточно воспользоваться нашим ресурсом. Все новые фильмы, игры, сериалы, книги и музыка за 2013 и 2014 годы через торрент бесплатно. Скачивайте фильмы в хорошем качестве, игры для пк, xbox, playstation без регистрации. У нас вы найдете новые Зарубежные сериалы и Русские сериалы 2013, 2014, 2015 годов. Оставайтесь с нами, качайте любимые фильмы, игры, сериалы, книги и музыку.