img image001 image001 image001 image001 image001 image001 image001 image001 image001 image001 image001 image001 image001 image001 image001

Planets Sun Sun Sun
Статистика раздачи
Автор: Nickolas3434 | Размер: 5.39 ГБ | Добавлен: 09 дек 2014
Раздают: 709    Качают: 233
Скачать торрент
Скачать торрент
Описание торрента

СообщениеДобавлено: 09 дек 2014 

Информация о фильме
Название: Отрыв
Год выхода: 2012
Жанр: Военный, драма
Режиссер: Сергей Попов
В ролях: Игорь Петренко, Катерина Васильева (V), Андрей Смоляков, Андрей Панин, Кристина Кузьмина, Елена Лядова, Николай Добрынин, Игорь Скляр, Владимир Колганов, Андрей Зибров, Кирилл Полухин, Дмитрий Поднозов, Руслан Лукьянов, Александр Стекольников, Егор Бакулин, Андрей Шипицын, Владимир Галась, Денис Кириллов, Александр Русинов
О фильме:
В 1947 году Алексей Митрохин приезжает в послевоенную Москву навестить своего друга, бывшего комбата Аргунова, который во время войны спас его жизнь. Но оказывается, что комбат осужден на 25 лет и пребывает в лагере строго режима. Герой решается на отчаянный поступок — любой ценой вызволить друга…Митрохин имитирует покушение на вождя народов товарища Сталина и получает приговор — четверть века в лагере самой высокой режимной категории — карельском «Лазо». В бараке он встречает, наконец, своего друга и произносит одну единственную фразу: «А я за тобой, комбат».Бежать из «Лазо» еще никому не удавалось. С северной стороны лагеря — озеро, с юга — обнесенный колючей проволокой участок суши. С первого взгляда, затея совершить побег кажется безумной, но выясняется, что до войны Алексей учился в гидротехническом институте и проходил практику именно в том месте, где сейчас расположен концлагерь. В голове героя мгновенно вырабатывается совершенно невероятный план: использовать для побега плавающие торфяные острова…

Страна: Россия
Студия: Всемирные Русские Студии, Первый канал
Продолжительность: 8 х ~ 00:48:00
Перевод: Не требуется
Файл
Формат: AVI
Качество: WEB-DLRip
Видео: XviD, 720x400, ~1800 kbps, 25.000 fps
Аудио: AC3, 44.1 KHz, 2 ch, 192 Kbps
Субтитры: Нет
Семпл

Complete name : E:KinoOtryv.S01.2011.XviD.WEB-DLRip.GeneralfilmOtryv.(5.seriya.iz.8).2011.XviD.WEB-DLRip.Generalfilm.avi
Format : AVI
Format/Info : Audio Video Interleave
File size : 690 MiB
Duration : 48mn 10s
Overall bit rate : 2 003 Kbps
Writing application : VirtualDubMod 1.5.10.3 | www.virtualdub-fr.org || (build 2550/release)
Writing library : VirtualDubMod build 2550/release
Video
ID : 0
Format : MPEG-4 Visual
Format profile : Advanced Simple@L5
Format settings, BVOP : 2
Format settings, QPel : No
Format settings, GMC : No warppoints
Format settings, Matrix : Default (H.263)
Codec ID : XVID
Codec ID/Hint : XviD
Duration : 48mn 10s
Bit rate : 1 802 Kbps
Width : 720 pixels
Height : 400 pixels
Display aspect ratio : 16:9
Frame rate : 25.000 fps
Color space : YUV
Chroma subsampling : 4:2:0
Bit depth : 8 bits
Scan type : Progressive
Compression mode : Lossy
Bits/(Pixel*Frame) : 0.250
Stream size : 621 MiB (90%)
Writing library : XviD 1.2.1 (UTC 2008-12-04)
Audio
ID : 1
Format : AC-3
Format/Info : Audio Coding 3
Mode extension : CM (complete main)
Format settings, Endianness : Big
Codec ID : 2000
Duration : 48mn 10s
Bit rate mode : Constant
Bit rate : 192 Kbps
Channel count : 2 channels
Channel positions : Front: L R
Sampling rate : 44.1 KHz
Bit depth : 16 bits
Compression mode : Lossy
Stream size : 66.2 MiB (10%)
Alignment : Split accross interleaves
Interleave, duration : 40 ms (1.00 video frame)
Interleave, preload duration : 500 ms

Релиз от:



   Похожие торренты   Торрент   Размер 
В этой теме нет новых непрочитанных сообщений. Отрыв [01-08 из 08] (2012) WEB-DLRip от Generalfilm | КПК

309 | 86

1.7 ГБ

В этой теме нет новых непрочитанных сообщений. Отрыв [01-08 из 08] (2012) TVRip | КПК от Generalfilm

56 | 7

1.03 ГБ

В этой теме нет новых непрочитанных сообщений. Отрыв [01-08 из 08] (2012) WEB-DLRip 1080p

344 | 24

11.27 ГБ

В этой теме нет новых непрочитанных сообщений. Отрыв [01-08 из 08] (2012) WEB-DLRip 720p

346 | 65

5.33 ГБ

В этой теме нет новых непрочитанных сообщений. Новогодний отрыв / Incidencias (2015) WEB-DLRip-AVC | iTunes

255 | 25

1.46 ГБ

В этой теме нет новых непрочитанных сообщений. Новогодний отрыв / Incidencias (2015) WEB-DLRip | Чистый звук

3706 | 146

1.37 ГБ

В этой теме нет новых непрочитанных сообщений. Новогодний отрыв / Incidencias (2015) WEB-DLRip от MegaPeer | iTunes

1338 | 42

1.45 ГБ




Вы не можете начинать темы
Вы не можете отвечать на сообщения
Вы не можете редактировать свои сообщения
Вы не можете удалять свои сообщения
Вы не можете добавлять вложения

Перейти:  
Для Мосгорсуда, Роскомнадзора и рекламодателей: mosgorsud-torrent[собачка]yandex.ru
 Вход
ppkBB3cker v.2 © 2008-2014 @ PPK
[ Time : 0.085s | 17 Queries | GZIP : Off ]

Торрент трекер RUTOR.IN, Не можете зайти на rutor.org? Какой новый адрес рутор? Какое зеркало рутор? Не работает rutor.org и зеркала? Тогда наш торрент специально для вас. Rutor.in неофициальное зеркало rutor. В случае если у Вас заблокирован rutor или вдруг Вы не можете на него зайти, то Вы без труда сможете скачать бесплатно и без рекламы последние новинки кино, игр, сериалов и прочего у нас, на Rutor.in. Не нужно использовать прокси, чтобы зайти на рутор, достаточно воспользоваться нашим ресурсом. Все новые фильмы, игры, сериалы, книги и музыка за 2013 и 2014 годы через торрент бесплатно. Скачивайте фильмы в хорошем качестве, игры для пк, xbox, playstation без регистрации. У нас вы найдете новые Зарубежные сериалы и Русские сериалы 2013, 2014, 2015 годов. Оставайтесь с нами, качайте любимые фильмы, игры, сериалы, книги и музыку.