img image001 image001 image001 image001 image001 image001 image001 image001 image001 image001 image001 image001 image001 image001 image001

Planets Sun Sun Sun
Статистика раздачи
Автор: Nickolas3434 | Размер: 7.53 ГБ | Добавлен: 10 дек 2014
Раздают: 448    Качают: 226
Скачать торрент
Скачать торрент
Описание торрента

СообщениеДобавлено: 10 дек 2014 

Информация о фильме
Название: Красивая жизнь
Год выхода: 2014
Жанр: Мелодрама
Режиссер: Александр Замятин
В ролях: Марина Митрофанова, Евгений Шириков, Кирилл Жандаров, Агата Муцениеце, Екатерина Дубакина, Любава Грешнова, Наталья Чернявская, Владислав Ветров, Мартиньш Вилсонс, Валерий Афанасьев, Елена Цыплакова, Владимир Стержаков, Алёна Яковлева, Татьяна Орлова, Алексей Фатеев, Александр Силаев, Андрей Лебедев, Анжелика Кошевая, Алёна Галлиардт, Андрей Аверьянов, Денис Ткачёв, Роман Курцын, Михаил Куряев, Игорь Скрипко, Дмитрий Гудочкин, Анастасия Исакова
О фильме: Москва, 1988 год. На дне рождения своей подруги Ирина - "студентка, комсомолка и просто красавица" - знакомится с Юрой. Молодые люди влюбляются друг в друга с первого взгляда. Однако на пути их романа встают бывшие друзья: подруга Иры – капризная дочь влиятельных родителей Жанна Верхоланцева - испытывает сильные чувства к Юре, а ее брат и лучший друг Юры Саша Верхоланцев пылает страстью к Ирине.Чтобы устранить соперника, Саша просит своего отца выслать Юру из Москвы. В итоге Юра попадает в Афганистан. А вскоре Жанна становится виновницей автомобильной аварии, в которой серьезно страдает мать Ирины.Единственный шанс спасти мать - найти деньги на сложную и опасную операцию. Однако собрать такую огромную сумму Ирине и ее отцу оказывается не под силу. У Ирины остается все меньше времени, а неприятности, проблемы и долги накапливаются как снежный ком. Сложным положением девушки решает воспользоваться оскорбленный отказом Саша...

Выпущено: Россия
Продолжительность: 6 x ~ 00:45:00
Перевод: Не требуется
Файл
Качество: HDTVRip
Видео: XviD, 720x400 (16:9), 25.000 fps, 1 491 Kbps (0.207 bit/pixel)
Аудио: AC-3, 48.0 KHz, 2 ch, 192 Kbps, CBR
General
Complete name : /Красивая.жизнь.2014.HDTVRip.RG.Russkie.serialy.&.Files-x/01.Красивая.жизнь.2014.HDTVRip.RG.Russkie.serialy.&.Files-x.avi
Format : AVI
Format/Info : Audio Video Interleave
File size : 550 MiB
Duration : 45mn 47s
Overall bit rate : 1 679 Kbps
Writing application : VirtualDubMod 1.5.10.3 | www.virtualdub-fr.org || (build 2550/release)
Writing library : VirtualDubMod build 2550/release
Video
ID : 0
Format : MPEG-4 Visual
Format profile : Advanced Simple@L5
Format settings, BVOP : 2
Format settings, QPel : No
Format settings, GMC : No warppoints
Format settings, Matrix : Custom
Codec ID : XVID
Codec ID/Hint : XviD
Duration : 45mn 47s
Source duration : 31mn 57s
Bit rate : 1 491 Kbps
Width : 720 pixels
Height : 400 pixels
Display aspect ratio : 16:9
Frame rate : 25.000 fps
Color space : YUV
Chroma subsampling : 4:2:0
Bit depth : 8 bits
Scan type : Progressive
Compression mode : Lossy
Bits/(Pixel*Frame) : 0.207
Stream size : 341 MiB (62%)
Writing library : XviD 73
Audio
ID : 1
Format : AC-3
Format/Info : Audio Coding 3
Mode extension : CM (complete main)
Format settings, Endianness : Big
Codec ID : 2000
Duration : 45mn 47s
Source duration : 31mn 58s
Bit rate mode : Constant
Bit rate : 192 Kbps
Channel(s) : 2 channels
Channel positions : Front: L R
Sampling rate : 48.0 KHz
Bit depth : 16 bits
Compression mode : Lossy
Stream size : 43.9 MiB (8%)
Alignment : Split accross interleaves
Interleave, duration : 40 ms (1.00 video frame)
Interleave, preload duration : 500 ms

Релиз от:



   Похожие торренты   Торрент   Размер 
В этой теме нет новых непрочитанных сообщений. Красивая жизнь [01-09 из 20] (2014) HDTVRip от Files-x

190 | 45

5.91 ГБ

В этой теме нет новых непрочитанных сообщений. Красивая жизнь [01-09 из 20] (2014) HDTVRip от Files-x

114 | 35

4.84 ГБ

В этой теме нет новых непрочитанных сообщений. Красивая жизнь [01-09 из 20] (2014) HDTVRip от Files-x

267 | 287

9.14 ГБ

В этой теме нет новых непрочитанных сообщений. Красивая жизнь [01-03 из 20] (2014) HDTVRip от Files-x

111 | 7

1.61 ГБ

В этой теме нет новых непрочитанных сообщений. Красивая жизнь [01-06 из 20] (2014) HDTVRip от Files-x

185 | 41

3.23 ГБ

В этой теме нет новых непрочитанных сообщений. Красивая жизнь [01-20 из 20] (2014) HDTVRip от Files-x

3394 | 1893

10.75 ГБ

В этой теме нет новых непрочитанных сообщений. Красивая жизнь [01-04 из 20] (2014) WEB-DLRip-AVC от Files-x

23 | 13

6.86 ГБ




Вы не можете начинать темы
Вы не можете отвечать на сообщения
Вы не можете редактировать свои сообщения
Вы не можете удалять свои сообщения
Вы не можете добавлять вложения

Перейти:  
Для Мосгорсуда, Роскомнадзора и рекламодателей: mosgorsud-torrent[собачка]yandex.ru
 Вход
ppkBB3cker v.2 © 2008-2014 @ PPK
[ Time : 0.553s | 15 Queries | GZIP : Off ]

Торрент трекер RUTOR.IN, Не можете зайти на rutor.org? Какой новый адрес рутор? Какое зеркало рутор? Не работает rutor.org и зеркала? Тогда наш торрент специально для вас. Rutor.in неофициальное зеркало rutor. В случае если у Вас заблокирован rutor или вдруг Вы не можете на него зайти, то Вы без труда сможете скачать бесплатно и без рекламы последние новинки кино, игр, сериалов и прочего у нас, на Rutor.in. Не нужно использовать прокси, чтобы зайти на рутор, достаточно воспользоваться нашим ресурсом. Все новые фильмы, игры, сериалы, книги и музыка за 2013 и 2014 годы через торрент бесплатно. Скачивайте фильмы в хорошем качестве, игры для пк, xbox, playstation без регистрации. У нас вы найдете новые Зарубежные сериалы и Русские сериалы 2013, 2014, 2015 годов. Оставайтесь с нами, качайте любимые фильмы, игры, сериалы, книги и музыку.