img image001 image001 image001 image001 image001 image001 image001 image001 image001 image001 image001 image001 image001 image001 image001

Planets Sun Sun Sun
Статистика раздачи
Автор: Nickolas3434 | Размер: 581.02 МБ | Добавлен: 12 дек 2014
Раздают: 16    Качают: 3
Скачать торрент
Скачать торрент
Описание торрента

СообщениеДобавлено: 12 дек 2014 

Информация о фильме
Название: Вегас
Оригинальное название: Vegas
Год выхода: 2012
Жанр: боевик, драма, криминал, детектив, вестерн
Режиссер: Мэтт Эрл Бисли, Дуан Кларк, Роксанн Доусон
В ролях: Деннис Куэйд, Майкл Чиклис, Кэрри-Энн Мосс, Тейлор Хэндли, Джейсон О’Мара, Сара Джонс, Джеймс Руссо, Сонни Маринелли, Айми Гарсиа, Майкл Рейли Бурк

О фильме:
Фильм снят по реальным событиям, о ковбое по имени Ральф Лэмб, в 1960-м году ставшем главным шерифом Лас-Вегаса и прослужившем на этом посту 18 лет. При Лэмбе был сформирован полицейский департамент города. Он противостоял мафии, мото-банде «Ангелы ада» и прославился тем, что ни разу ни в кого не выстрелил.
Страна: США
Студия: CBS Television Studios, Happy Valley Films, Tree Line Films, Arthur Sarkissian Productions
Продолжительность: ~00:45:00 серия
Перевод: Профессиональный (многоголосый закадровый) 1 канал

Файл
Кодек: XviD
Качество: WEB-DLRip
Видео: XviD, 720x400 (1.80:1), 23.976 fps, XviD build 65 ~1647 kbps avg,
Звук: MP3, 48.0 KHz, 2 ch, 128 Kbps,




Общее
Полное имя : E:КиноФаргоVegas.s01e01.avi
Формат : AVI
Формат/Информация : Audio Video Interleave
Размер файла : 581 Мбайт
Продолжительность : 45 м.
Общий поток : 1788 Кбит/сек
Программа кодирования : Lavf54.63.104

Видео
Идентификатор : 0
Формат : xvid
Идентификатор кодека : xvid
Продолжительность : 45 м.
Битрейт : 1647 Кбит/сек
Ширина : 720 пикселей
Высота : 400 пикселей
Соотношение сторон : 16:9
Частота кадров : 23,976 кадра/сек
Бит/(Пиксели*Кадры) : 0.239
Размер потока : 535 Мбайт (92%)

Аудио
Идентификатор : 1
Формат : MPEG Audio
Версия формата : Version 1
Профиль формата : Layer 3
Режим : Joint stereo
Расширение режима : MS Stereo
Идентификатор кодека : 55
Идентификатор кодека/Подсказка : MP3
Продолжительность : 45 м.
Вид битрейта : Постоянный
Битрейт : 128 Кбит/сек
Каналы : 2 канала
Частота : 48,0 КГц
Метод сжатия : С потерями
Размер потока : 41,6 Мбайт (7%)
Выравнивание : Соединение по промежуткам
Продолжительность промежутка : 24 мс. (0,58 видеокадр)



   Похожие торренты   Торрент   Размер 
В этой теме нет новых непрочитанных сообщений. Вегас / Vegas [01x01-17] (2012) WEB-DLRip | Amedia

0 | 1

12.32 ГБ

В этой теме нет новых непрочитанных сообщений. Вегас / Vegas [01x01-19] (2012) WEB-DLRip | Первый канал

11 | 7

11.83 ГБ

В этой теме нет новых непрочитанных сообщений. Вегас / Vegas [S01] (2012) WEB-DLRip | NewStudio

7 | 4

16.97 ГБ

В этой теме нет новых непрочитанных сообщений. Вегас / Vegas [S01] (2012) WEB-DLRip | NewStudio

0 | 3

11.28 ГБ

В этой теме нет новых непрочитанных сообщений. Вегас / Vegas [S01] (2012) WEB-DLRip | Первый канал

39 | 302

13.08 ГБ

В этой теме нет новых непрочитанных сообщений. Вегас / Vegas [S01] (2012) WEB-DL 1080р | NewStudio

1 | 2

36.67 ГБ

В этой теме нет новых непрочитанных сообщений. Вегас / Vegas [S01] (2012) WEB-DL 720р | NewStudio

77 | 6

30.07 ГБ




Вы не можете начинать темы
Вы не можете отвечать на сообщения
Вы не можете редактировать свои сообщения
Вы не можете удалять свои сообщения
Вы не можете добавлять вложения

Перейти:  
Для Мосгорсуда, Роскомнадзора и рекламодателей: mosgorsud-torrent[собачка]yandex.ru
 Вход
ppkBB3cker v.2 © 2008-2014 @ PPK
[ Time : 0.583s | 19 Queries | GZIP : On ]

Торрент трекер RUTOR.IN, Не можете зайти на rutor.org? Какой новый адрес рутор? Какое зеркало рутор? Не работает rutor.org и зеркала? Тогда наш торрент специально для вас. Rutor.in неофициальное зеркало rutor. В случае если у Вас заблокирован rutor или вдруг Вы не можете на него зайти, то Вы без труда сможете скачать бесплатно и без рекламы последние новинки кино, игр, сериалов и прочего у нас, на Rutor.in. Не нужно использовать прокси, чтобы зайти на рутор, достаточно воспользоваться нашим ресурсом. Все новые фильмы, игры, сериалы, книги и музыка за 2013 и 2014 годы через торрент бесплатно. Скачивайте фильмы в хорошем качестве, игры для пк, xbox, playstation без регистрации. У нас вы найдете новые Зарубежные сериалы и Русские сериалы 2013, 2014, 2015 годов. Оставайтесь с нами, качайте любимые фильмы, игры, сериалы, книги и музыку.
cron