img image001 image001 image001 image001 image001 image001 image001 image001 image001 image001 image001 image001 image001 image001 image001

Planets Sun Sun Sun
Статистика раздачи
Автор: Nickolas3434 | Размер: 7.39 ГБ | Добавлен: 11 дек 2014
Раздают: 821    Качают: 318
Скачать торрент
Скачать торрент
Описание торрента

СообщениеДобавлено: 11 дек 2014 



Страна: Россия
Производство: «Интра Фильм»
Жанр: Боевик
Год выпуска: 2014
Продолжительность: 12 x ~ 00:47:00
Язык: Русский
Режиссер: Александр Бурцев, Дмитрий Сошников

Описание: После ареста Ли в городе появляется таинственный «Хозяин». Он начинает постепенно прибирать к рукам весь бизнес, оставшийся после севшего в тюрьму криминального лидера. Бывший компаньон Ли — Очагиров, во время встречи в Москве раскрывает новому «Хозяину» всю схему криминального бизнеса в городе. По возвращении в город Очагирова убивают...

Исходник: DVD9 R5
Тип релиза: DVDRip
Контейнер: AVI
Видео: 720x400 (1.80:1), 23.976 fps, XviD MPEG-4 ~1733 kbps avg, 0.25 bit/pixel
Аудио 1: 48 kHz, AC3 Dolby Digital, 2/0 (L,R) ch, ~96 kbps

Общее
Полное имя : D:ААА2БЕЛЫЕ ВОЛКИ 21 серия.avi
Формат : AVI
Формат/Информация : Audio Video Interleave
Размер файла : 630 Мбайт
Продолжительность : 47 м.
Общий поток : 1839 Кбит/сек
Программа кодирования : VirtualDubMod 1.5.10.3 | www.virtualdub-fr.org || (build 2550/release)
Библиотека кодирования : VirtualDubMod build 2550/release

Видео
Идентификатор : 0
Формат : MPEG-4 Visual
Профиль формата : Advanced Simple@L5
Параметр BVOP формата : 2
Параметр QPel формата : Нет
Параметр GMC формата : Без точки перехода
Параметр матрицы формата : Default (MPEG)
Режим смешивания : Сжатый битовый поток
Идентификатор кодека : XVID
Идентификатор кодека/Подсказка : XviD
Продолжительность : 47 м.
Битрейт : 1734 Кбит/сек
Ширина : 720 пикселей
Высота : 400 пикселей
Соотношение сторон : 16:9
Частота кадров : 23,976 кадра/сек
Цветовое пространство : YUV
Субдискретизация насыщенности : 4:2:0
Битовая глубина : 8 бит
Тип развёртки : Прогрессивная
Метод сжатия : С потерями
Бит/(Пиксели*Кадры) : 0.251
Размер потока : 594 Мбайт (94%)
Библиотека кодирования : XviD 1.2.1 (UTC 2008-12-04)

Аудио
Идентификатор : 1
Формат : AC-3
Формат/Информация : Audio Coding 3
Расширение режима : CM (complete main)
Параметр Endianness формата : Big
Идентификатор кодека : 2000
Продолжительность : 47 м.
Вид битрейта : Постоянный
Битрейт : 96,0 Кбит/сек
Каналы : 2 канала
Расположение каналов : Front: L R
Частота : 48,0 КГц
Битовая глубина : 16 бит
Метод сжатия : С потерями
Размер потока : 32,9 Мбайт (5%)
Выравнивание : Разделение по промежуткам
Продолжительность промежутка : 42 мс. (1,00 видеокадр)
Время предзагрузки промежутка : 500 мс.


Автор рипа:



   Похожие торренты   Торрент   Размер 
В этой теме нет новых непрочитанных сообщений. Белые волки [01-14 из 14] (2012) DVDRip

726 | 273

7.37 ГБ

В этой теме нет новых непрочитанных сообщений. Белые Волки / Weisse Wölfe (1969) DVDRip-AVC | D

9 | 4

745.38 МБ

В этой теме нет новых непрочитанных сообщений. Белые волки / Weisse Wölfe (1969) DVDRip

9 | 2

744.1 МБ

В этой теме нет новых непрочитанных сообщений. Белые волки / Weisse Wоlfe (1969) DVDRip от ExKinoRay

64 | 12

1.37 ГБ

В этой теме нет новых непрочитанных сообщений. Белые волки [02x01 из 12] (2014) SATRip от Files-x

1129 | 244

6.45 ГБ

В этой теме нет новых непрочитанных сообщений. Белые волки [02x01 из 12] (2014) SATRip от Files-x

137 | 21

3.23 ГБ

В этой теме нет новых непрочитанных сообщений. Белые волки [01-10 из 10] (2012) SATRip от GeneralFilm

19 | 2

6.23 ГБ




Вы не можете начинать темы
Вы не можете отвечать на сообщения
Вы не можете редактировать свои сообщения
Вы не можете удалять свои сообщения
Вы не можете добавлять вложения

Перейти:  
Для Мосгорсуда, Роскомнадзора и рекламодателей: mosgorsud-torrent[собачка]yandex.ru
 Вход
ppkBB3cker v.2 © 2008-2014 @ PPK
[ Time : 0.058s | 16 Queries | GZIP : Off ]

cron