img image001 image001 image001 image001 image001 image001 image001 image001 image001 image001 image001 image001 image001 image001 image001

Planets Sun Sun Sun
Статистика раздачи
Автор: Nickolas3434 | Размер: 2.15 ГБ | Добавлен: 17 дек 2014
Раздают: 78    Качают: 13
Скачать торрент
Скачать торрент
Описание торрента

СообщениеДобавлено: 17 дек 2014 

Информация о фильме
Оригинальное название: Тайны следствия
Год выхода: 2014
Жанр: Детектив, драма, криминал
Режиссер: Ольга Кандидатова
В ролях: Анна Ковальчук, Вячеслав Захаров, Игорь Николаев (II), Александр Новиков (III), Ольга Павловец, Мирослав Малич, Злата Ильченко, Юлия Яковлева, Олег Алмазов, Дмитрий Поднозов, Яна Кушаковская, Гульназ Насырова, Дмитрий Максимов (II), Гавриил Федотов, Варвара Шалагина, Кирилл Фролов, Сергей Мардарь, Василина Стрельникова, Роман Павлушев, Сергей Малюгов, Андрей Шарков, Мария Павлова, Ксения Асмоловская, Ирина Коваленко (II), Юрий Архангельский
О фильме:
Как всегда блестяще справляясь со своими профессиональными обязанностями, Мария Швецова должна постоянно помнить и о другой важной части своей жизни. Семья тоже требует её терпения и заботы. Любимая мама и обожаемая супруга, как всегда проводит дома слишком мало времени, чтобы уделять хозяйству достаточно внимания. Поэтому Луганский предлагает Маше взять помощницу по дому, но Швецова не спешит соглашаться на это предложение, тем более, что Злата принимает эту идею в штыки: теперь она сама будет вести дом в отсутствие мамы! Отрадная поддержка со стороны дочери приходится очень кстати, ведь новые очень серьёзные дела не заставляют себя ждать. Швецовой приходится заниматься не только банальными на первый взгляд убийствами, но и расследованиями, в которых замешаны политические мотивы. И самые на первый взгляд просто складывающиеся расследования часто помогают вскрывать удивительные и страшные тайны прошлого. Так, поимка свидетельницы, сбежавшей с места убийства модного ловеласа, позволяет раскрыть семейную тайну и связанную с ней драму, тщательно скрывавшиеся много лет, а убийство общественника Чибисова оборачивается запутанным делом, в котором личные мотивы преступления тесно переплелись с интересами крупного теневого бизнеса. Обнаруженный в кустах возле дороги труп женщины, усыпанный мелкими долларовыми купюрами, наводит оперативников на мысль о простом разбое, но Маша понимает, что в этом случае мотивы убийцы могут быть гораздо глубже... В то же время смерть бомжа, найденного «собачником» на пустыре, оказывается связанной с другим преступлением, произошедшим неподалёку, и общие черты, объединяющие гибель двух совершенно разных людей, оказывается под силу выявить только Швецовой… Впрочем, практика Марии Сергеевны столь насыщена запутанными делами, что для неё самой поиски «двойного дна» в каждом самом мало примечательном расследовании вошли в привычку. Но если бы рядом со Швецовой не было её верных друзей, коллег и старого наставника Ковина, едва ли бы ей удалось добиться столь внушительных успехов. К счастью, на работе Маше почти также хорошо и уютно как дома, и помощницы ей, в сущности, совершенно не нужны...
Страна: Россия
Студия: Форвард-Фильм, Студия Панорама
Продолжительность: 2 х ~ 00:43:00
Перевод: Не требуется
Файл
Качество: HDTVRip
Видео: XviD, 720x400 (16:9), 25.000 fps, 1 613 Kbps (0.207 bit/pixel)
Аудио: AC-3, 48.0 KHz, 2 ch, 192 Kbps, CBR
General
Complete name : Y:раздачиTayny.sledstviya-14.2014.XviD.HDTVRip.Files-x&.RG.Russkie.serialy\01.Tayny.sledstviya-14.2014.XviD.HDTVRip.Files-x&.RG.Russkie.serialy.avi
Format : AVI
Format/Info : Audio Video Interleave
File size : 550 MiB
Duration : 42mn 26s
Overall bit rate : 1 813 Kbps
Writing application : Lavf53.19.0
Video
ID : 0
Format : MPEG-4 Visual
Format profile : Advanced Simple@L5
Format settings, BVOP : 1
Format settings, QPel : No
Format settings, GMC : No warppoints
Format settings, Matrix : Custom
Codec ID : XVID
Codec ID/Hint : XviD
Duration : 42mn 26s
Bit rate : 1 610 Kbps
Width : 720 pixels
Height : 400 pixels
Display aspect ratio : 16:9
Frame rate : 25.000 fps
Color space : YUV
Chroma subsampling : 4:2:0
Bit depth : 8 bits
Scan type : Progressive
Compression mode : Lossy
Bits/(Pixel*Frame) : 0.224
Stream size : 489 MiB (89%)
Writing library : XviD 73
Audio
ID : 1
Format : AC-3
Format/Info : Audio Coding 3
Mode extension : CM (complete main)
Format settings, Endianness : Big
Codec ID : 2000
Duration : 42mn 26s
Bit rate mode : Constant
Bit rate : 192 Kbps
Channel(s) : 2 channels
Channel positions : Front: L R
Sampling rate : 48.0 KHz
Bit depth : 16 bits
Compression mode : Lossy
Stream size : 58.3 MiB (11%)
Alignment : Aligned on interleaves
Interleave, duration : 32 ms (0.80 video frame)

Внимание! Раздача ведётся путём добавления новых серий
Внимание! Раздача ведётся путём добавления новых серий; при каждом добавлении создётся новый торрент.
Чтобы начать докачку новой серии, пользователям необходимо сделать следующее:
1) остановить скачивание
2) удалить старый торрент у себя из клиента (старые серии удалять не надо)
3) скачать новый торрент и запустить его у себя в клиенте вместо старого, при этом указать клиенту путь в старую папку куда и должно происходить скачивание новых серий.
Ваш клиент при этом должен произвести хеширование (проверку) старой папки (если не производит сам - помогите ему сделать это), и будет докачивать только те серии которых у вас ещё нет. Старые серии при этом не удаляются, а продолжают раздаваться!
Eсли вы уже удалили старые серии, то предотвратить повторную закачку старых серий можно, отжав галочку в соответствовавших местах при запуске нового торрента.



Релиз от:



   Похожие торренты   Торрент   Размер 
В этой теме нет новых непрочитанных сообщений. Тайны следствия [14x01-02 из 16] (2014) HDTVRip от Files-x

732 | 208

8.6 ГБ

В этой теме нет новых непрочитанных сообщений. Тайны следствия [14x01-02 из 16] (2014) HDTVRip от Files-x

218 | 46

4.32 ГБ

В этой теме нет новых непрочитанных сообщений. Тайны следствия [14x01-08 из 16] (2014) HDTVRip 720p от MediaClub

30 | 29

12.43 ГБ

В этой теме нет новых непрочитанных сообщений. Тайны следствия [14x01-08 из 16] (2014) HDTVRip 720p от MediaClub

193 | 76

24.87 ГБ

В этой теме нет новых непрочитанных сообщений. Тайны следствия [14x01-04 из 16] (2014) HDTV 1080i от MediaClub

50 | 16

19.11 ГБ

В этой теме нет новых непрочитанных сообщений. Тайны следствия [14x01-04 из 16] (2014) HDTV 1080i от MediaClub

121 | 53

38.47 ГБ

В этой теме нет новых непрочитанных сообщений. Тайны следствия [14x01-04 из 16] (2014) HDTV 1080i от MediaClub

33 | 23

28.78 ГБ




Вы не можете начинать темы
Вы не можете отвечать на сообщения
Вы не можете редактировать свои сообщения
Вы не можете удалять свои сообщения
Вы не можете добавлять вложения

Перейти:  
Для Мосгорсуда, Роскомнадзора и рекламодателей: mosgorsud-torrent[собачка]yandex.ru
 Вход
ppkBB3cker v.2 © 2008-2014 @ PPK
[ Time : 1.411s | 15 Queries | GZIP : Off ]

Торрент трекер RUTOR.IN, Не можете зайти на rutor.org? Какой новый адрес рутор? Какое зеркало рутор? Не работает rutor.org и зеркала? Тогда наш торрент специально для вас. Rutor.in неофициальное зеркало rutor. В случае если у Вас заблокирован rutor или вдруг Вы не можете на него зайти, то Вы без труда сможете скачать бесплатно и без рекламы последние новинки кино, игр, сериалов и прочего у нас, на Rutor.in. Не нужно использовать прокси, чтобы зайти на рутор, достаточно воспользоваться нашим ресурсом. Все новые фильмы, игры, сериалы, книги и музыка за 2013 и 2014 годы через торрент бесплатно. Скачивайте фильмы в хорошем качестве, игры для пк, xbox, playstation без регистрации. У нас вы найдете новые Зарубежные сериалы и Русские сериалы 2013, 2014, 2015 годов. Оставайтесь с нами, качайте любимые фильмы, игры, сериалы, книги и музыку.