img image001 image001 image001 image001 image001 image001 image001 image001 image001 image001 image001 image001 image001 image001 image001

Planets Sun Sun Sun
Статистика раздачи
Автор: Nickolas3434 | Размер: 2.81 ГБ | Добавлен: 19 дек 2014
Раздают: 125    Качают: 14
Скачать торрент
Скачать торрент
Описание торрента

СообщениеДобавлено: 19 дек 2014 


Страна: Россия / ЗАО "Дирекция кино"
Жанр: драма
Год выпуска: 2013
Продолжительность: ~ 00:50:00 / серия
Перевод: Не требуется
Cубтитры: нет
Оригинальная аудиодорожка: русский
Режиссер: Александр Котт
В ролях: Александр Коршунов, Светлана Смирнова-Марцинкевич, Николай Иванов (III), Мария Луговая, Михаил Гаврилов, Людмила Полякова, Никита Высоцкий, Ирина Основина, Марина Поляк, Анна Галинова, Татьяна Шатилова, Анна Гуляренко, Анна Цуканова, Максим Костромыкин, Леонид Громов, Тамара Акулова, Владимир Меньшов, Валентина Теличкина, Лев Прыгунов, Ольга Науменко, Сергей Романович
Описание: О трагической истории любви на фоне Карибского кризиса. По сюжету фильма, после обострения отношений двух сверхдержав в разных регионах Советского Союза организованы военные сборы для резервистов. В тихой деревушке, расположенной где-то в средней полосе России, ничего не знают о высоких целях политического руководства СССР и США. Но когда мужчины призывного возраста начинают получать повестки из военкомата, сельчане понимают: началась новая война…


Качество: DVDRip / DVD9 R5 - лицензионный диск от компании "CD Land"
Формат: AVI
Видео: 704x400 (1.76:1), 25.000 fps, XviD ~ 1800 kbps avg, 0.256 bit/pixel
Аудио: 48 kHz, Dolby AC3, 2 ch, 192 kbps, русский
Раздача от:
General
Format : AVI
Format/Info : Audio Video Interleave
File size : 756 MiB
Duration : 52mn 47s
Overall bit rate : 2 001 Kbps
Writing application : VirtualDubMod 1.5.10.3 | www.virtualdub-fr.org || (build 2550/release)
Writing library : VirtualDubMod build 2550/release
Video
ID : 0
Format : MPEG-4 Visual
Format profile : Advanced Simple@L5
Format settings, BVOP : 1
Format settings, QPel : No
Format settings, GMC : No warppoints
Format settings, Matrix : Custom
Codec ID : XVID
Codec ID/Hint : XviD
Duration : 52mn 47s
Bit rate : 1 799 Kbps
Width : 704 pixels
Height : 400 pixels
Display aspect ratio : 16:9
Frame rate : 25.000 fps
Color space : YUV
Chroma subsampling : 4:2:0
Bit depth : 8 bits
Scan type : Progressive
Compression mode : Lossy
Bits/(Pixel*Frame) : 0.256
Stream size : 680 MiB (90%)
Writing library : XviD 73
Audio
ID : 1
Format : AC-3
Format/Info : Audio Coding 3
Mode extension : CM (complete main)
Format settings, Endianness : Big
Codec ID : 2000
Duration : 52mn 46s
Bit rate mode : Constant
Bit rate : 192 Kbps
Channel(s) : 2 channels
Channel positions : Front: L R
Sampling rate : 48.0 KHz
Bit depth : 16 bits
Compression mode : Lossy
Stream size : 72.5 MiB (10%)
Alignment : Split accross interleaves
Interleave, duration : 40 ms (1.00 video frame)
Interleave, preload duration : 500 ms


[/hide]



   Похожие торренты   Торрент   Размер 
В этой теме нет новых непрочитанных сообщений. Третья мировая [01-04 из 04] (2013) DVD9 от New-Team | Лицензия

6 | 4

7.35 ГБ

В этой теме нет новых непрочитанных сообщений. Третья мировая [01-04 из 04] (2013) DVDRip-AVC от New-Team

81 | 18

2.81 ГБ

В этой теме нет новых непрочитанных сообщений. Третья мировая [01-04 из 04] (2013) WEB-DLRip от Generalfilm

360 | 133

2.19 ГБ

В этой теме нет новых непрочитанных сообщений. Первая Мировая [01-08 из 08] (2014) DVDRip-AVC от New-Team | лицензия

309 | 77

5.87 ГБ

В этой теме нет новых непрочитанных сообщений. Первая Мировая [01-08 из 08] (2014) DVDRip от New-Team | лицензия

1000 | 108

5.87 ГБ

В этой теме нет новых непрочитанных сообщений. War on Terror: Третья мировая (2006) PC

34 | 11

3.05 ГБ

В этой теме нет новых непрочитанных сообщений. Третья мировая: Чёрное золото / World War lll: Black Gold (2001) PC

47 | 8

648.82 МБ




Вы не можете начинать темы
Вы не можете отвечать на сообщения
Вы не можете редактировать свои сообщения
Вы не можете удалять свои сообщения
Вы не можете добавлять вложения

Перейти:  
Для Мосгорсуда, Роскомнадзора и рекламодателей: mosgorsud-torrent[собачка]yandex.ru
 Вход
ppkBB3cker v.2 © 2008-2014 @ PPK
[ Time : 0.065s | 15 Queries | GZIP : Off ]

Торрент трекер RUTOR.IN, Не можете зайти на rutor.org? Какой новый адрес рутор? Какое зеркало рутор? Не работает rutor.org и зеркала? Тогда наш торрент специально для вас. Rutor.in неофициальное зеркало rutor. В случае если у Вас заблокирован rutor или вдруг Вы не можете на него зайти, то Вы без труда сможете скачать бесплатно и без рекламы последние новинки кино, игр, сериалов и прочего у нас, на Rutor.in. Не нужно использовать прокси, чтобы зайти на рутор, достаточно воспользоваться нашим ресурсом. Все новые фильмы, игры, сериалы, книги и музыка за 2013 и 2014 годы через торрент бесплатно. Скачивайте фильмы в хорошем качестве, игры для пк, xbox, playstation без регистрации. У нас вы найдете новые Зарубежные сериалы и Русские сериалы 2013, 2014, 2015 годов. Оставайтесь с нами, качайте любимые фильмы, игры, сериалы, книги и музыку.