img image001 image001 image001 image001 image001 image001 image001 image001 image001 image001 image001 image001 image001 image001 image001

Planets Sun Sun Sun
Статистика раздачи
Автор: Nickolas3434 | Размер: 2.15 ГБ | Добавлен: 23 дек 2014
Раздают: 820    Качают: 72
Скачать торрент
Скачать торрент
Описание торрента

СообщениеДобавлено: 23 дек 2014 

Информация о фильме
Оригинальное название: Девушка средних лет
Год выпуска: 2014
Жанр: Мелодрама
Режиссер: Артур Румынский
В ролях: Эльвира Болгова, Александр Никитин, Елена Ручкина, Халима Искандерова, Олег Масленников-Войтов
О фильме: Ксюше Кузнецовой почти 40 лет. Свою жизнь она по привычке откладывает на потом: никак не может решиться усыновить Павлика, которого уже давно навещает в детском доме, выгнать обнаглевшего вечного жениха Вадика, поставить на место подруг, бесцеремонно вмешивающихся в её жизнь, и призвать к порядку бандита Ваху, чей ресторан отравляет жизнь всей округе. Но узнав о смертельном диагнозе, Ксюша понимает, что никакого "потом" у неё нет, и начинает жить полной жизнью…
Выпущено: Россия, Марс Медиа Энтертейнмент
Продолжительность: 4 х 00:44:00
Перевод: не требуется
Файл
Кодек: XviD
Качество: SATRip
Видео: 720x400 (1.80:1), 25 fps, XviD build 73 ~1548 kbps avg, 0.22 bit/pixel
Аудио: 48 kHz, AC3 Dolby Digital, 2/0 (L,R) ch, ~192.00 kbps avg
Код:
General
Complete name                  : Y:раздачиДевушка.средних.лет.2014.SATRip.RG.Russkie.serialy.&.Files-x1.Девушка.средних.лет.2014.SATRip.RG.Russkie.serialy.&.Files-x.avi
Format                         : AVI
Format/Info                    : Audio Video Interleave
File size                      : 550 MiB
Duration                       : 43mn 46s
Overall bit rate               : 1 758 Kbps
Writing application            : Lavf53.19.0
Video
ID                             : 0
Format                         : MPEG-4 Visual
Format profile                 : Advanced Simple@L5
Format settings, BVOP          : 1
Format settings, QPel          : No
Format settings, GMC           : No warppoints
Format settings, Matrix        : Custom
Codec ID                       : XVID
Codec ID/Hint                  : XviD
Duration                       : 43mn 46s
Bit rate                       : 1 555 Kbps
Width                          : 720 pixels
Height                         : 400 pixels
Display aspect ratio           : 16:9
Frame rate                     : 25.000 fps
Color space                    : YUV
Chroma subsampling             : 4:2:0
Bit depth                      : 8 bits
Scan type                      : Progressive
Compression mode               : Lossy
Bits/(Pixel*Frame)             : 0.216
Stream size                    : 487 MiB (88%)
Writing library                : XviD 73
Audio
ID                             : 1
Format                         : AC-3
Format/Info                    : Audio Coding 3
Mode extension                 : CM (complete main)
Format settings, Endianness    : Big
Codec ID                       : 2000
Duration                       : 43mn 46s
Bit rate mode                  : Constant
Bit rate                       : 192 Kbps
Channel(s)                     : 2 channels
Channel positions              : Front: L R
Sampling rate                  : 48.0 KHz
Bit depth                      : 16 bits
Compression mode               : Lossy
Stream size                    : 60.1 MiB (11%)
Alignment                      : Aligned on interleaves
Interleave, duration           : 32 ms (0.80 video frame)
 




Релиз группа
Отдельная громадная благодарность Media-Art-Club за созданный постер к раздаче.



   Похожие торренты   Торрент   Размер 
В этой теме нет новых непрочитанных сообщений. Девушка средних лет [01-04 из 04] (2014) WEB-DLRip-AVC от Files-x

251 | 30

2.24 ГБ

В этой теме нет новых непрочитанных сообщений. Девушка средних лет [01 из 04] (2014) WEB-DL 1080p от Files-x

18 | 1

5.24 ГБ

В этой теме нет новых непрочитанных сообщений. Девушка средних лет [01-04 из 04] (2014) WEB-DLRip от ExKinoRay

106 | 17

2.15 ГБ

В этой теме нет новых непрочитанных сообщений. Девушка средних лет [01-04 из 04] (2014) WEB-DL 720p от ExKinoRay

34 | 5

3.52 ГБ

В этой теме нет новых непрочитанных сообщений. Девушка с татуировкой дракона + Девушка, которая играла с огнем + Девушка, которая взрывала воздушные замки / The Girl... - Trilogy (2009) BDRip 720p от R.G. GoldenShara

39 | 25

13.1 ГБ

В этой теме нет новых непрочитанных сообщений. Девушка с татуировкой дракона / Девушка, которая играла с огнем / Девушка, которая взрывала воздушные замки / Män som hatar kvinnor / Flickan som lekte med elden / Luftslottet som sprängdes (2009) BDRip-AVC от RuBit

201 | 10

4.36 ГБ

В этой теме нет новых непрочитанных сообщений. Месть женщины средних лет / Revenge of the Middle-Aged Woman (2004) HDTVRip 720p от RG MixTorrent | P

2 | 3

2.29 ГБ




Вы не можете начинать темы
Вы не можете отвечать на сообщения
Вы не можете редактировать свои сообщения
Вы не можете удалять свои сообщения
Вы не можете добавлять вложения

Перейти:  
Для Мосгорсуда, Роскомнадзора и рекламодателей: mosgorsud-torrent[собачка]yandex.ru
 Вход
ppkBB3cker v.2 © 2008-2014 @ PPK
[ Time : 0.064s | 16 Queries | GZIP : Off ]

Торрент трекер RUTOR.IN, Не можете зайти на rutor.org? Какой новый адрес рутор? Какое зеркало рутор? Не работает rutor.org и зеркала? Тогда наш торрент специально для вас. Rutor.in неофициальное зеркало rutor. В случае если у Вас заблокирован rutor или вдруг Вы не можете на него зайти, то Вы без труда сможете скачать бесплатно и без рекламы последние новинки кино, игр, сериалов и прочего у нас, на Rutor.in. Не нужно использовать прокси, чтобы зайти на рутор, достаточно воспользоваться нашим ресурсом. Все новые фильмы, игры, сериалы, книги и музыка за 2013 и 2014 годы через торрент бесплатно. Скачивайте фильмы в хорошем качестве, игры для пк, xbox, playstation без регистрации. У нас вы найдете новые Зарубежные сериалы и Русские сериалы 2013, 2014, 2015 годов. Оставайтесь с нами, качайте любимые фильмы, игры, сериалы, книги и музыку.