img image001 image001 image001 image001 image001 image001 image001 image001 image001 image001 image001 image001 image001 image001 image001

Planets Sun Sun Sun
Статистика раздачи
Автор: Nickolas3434 | Размер: 3.26 ГБ | Добавлен: 28 дек 2014
Раздают: 373    Качают: 70
Скачать торрент
Скачать торрент
Описание торрента

СообщениеДобавлено: 28 дек 2014 


◈ Лиллехаммер ◈



Информация о фильме:
✦ Оригинальное название: Лиллехаммер
✦ Оригинальное название: Lilyhammer
✦ Год выхода: 2014
✦ Жанр: Драма, криминал, комедия
✦ Режиссер: Симен Алсвик, Лиза Мари Гамлем
✦ В ролях: Стив Ван Зандт, Тронд Фёуса Аурвог, Мариан Саастад Оттесен, Стайнар Саген, Фридтьов Сохейм, Свен Нордин, Эни Кригсволл, Михаель Акхнес-Персон, Карре Хеллум, Томми Карлсен и др.


Описание фильма:
Тальяно сдал своего босса федералам, и теперь, в рамках программы по защите свидетелей, он переезжает в Лиллехаммер, небольшой норвежский городок, когда-то приютивший зимние олимпийские игры. Сам Фрэнк называет его Лилихэммером, отсюда и название сериала. Фрэнк мечтает о рае с «чистым воздухом, белым снегом и клевыми телками», вдали от соблазнов Нью-Йорка и от карателей мафии. Реальность, конечно же, оказывается не такой, как мечты.



✦ Страна: США, Норвегия, Rubicon TV AS
✦ Продолжительность: ~ 00:49:00 серия
✦ Перевод: Авторский одноголосый
- Ю. Сербин

Внимание !!! В сериале присутствует ненормативная лексика!



Информация о файле:
✦ Кодек: XviD
✦ Формат: AVI
✦ Качество: HDTVRip
✦ Видео: MPEG4, XviD, 720x400 (16:9), 25.000 fps, 1 500 Kbps (0.208 bit/pixel)
✦ Аудио Rus: AC-3 Dolby Digital, 48.0 KHz, 2 ch, 192 Kbps, CBR

✔ Семпл


General
Complete name : F:СериалраздачаLilyhammer.S03.HDTVRip.SerbinLilyhammer.S03E01.HDTVRip.Serbin.avi
Format : AVI
Format/Info : Audio Video Interleave
File size : 558 MiB
Duration : 45mn 48s
Overall bit rate : 1 701 Kbps
Writing application : VirtualDubMod 1.5.10.2 (build 2540/release)
Writing library : VirtualDubMod build 2540/release

Video
ID : 0
Format : MPEG-4 Visual
Format profile : Advanced Simple@L5
Format settings, BVOP : Yes
Format settings, QPel : No
Format settings, GMC : No warppoints
Format settings, Matrix : Default (H.263)
Codec ID : XVID
Codec ID/Hint : XviD
Duration : 45mn 48s
Bit rate : 1 500 Kbps
Width : 720 pixels
Height : 400 pixels
Display aspect ratio : 16:9
Frame rate : 25.000 fps
Color space : YUV
Chroma subsampling : 4:2:0
Bit depth : 8 bits
Scan type : Progressive
Bits/(Pixel*Frame) : 0.208
Stream size : 491 MiB (88%)
Writing library : XviD 1.2.1 (UTC 2008-12-04)

Audio
ID : 1
Format : AC-3
Format/Info : Audio Coding 3
Format profile : Dolby Digital
Mode extension : CM (complete main)
Codec ID : 2000
Duration : 45mn 48s
Bit rate mode : Constant
Bit rate : 192 Kbps
Channel(s) : 2 channels
Channel positions : Front: L R
Sampling rate : 48.0 KHz
Bit depth : 16 bits
Stream size : 62.9 MiB (11%)
Alignment : Split accross interleaves
Interleave, duration : 40 ms (1.00 video frame)
Interleave, preload duration : 500 ms



   Похожие торренты   Торрент   Размер 
В этой теме нет новых непрочитанных сообщений. Лиллехаммер / Lilyhammer [03x01-03 из 08] (2014) HDTVRip | Сербин

1 | 4

1.63 ГБ

В этой теме нет новых непрочитанных сообщений. Лиллехаммер / Lilyhammer [03x01-05 из 08] (2014) HDTVRip | Сербин

160 | 72

2.69 ГБ

В этой теме нет новых непрочитанных сообщений. Лиллехаммер / Lilyhammer [03x01-03 из 08] (2014) HDTVRip | Сербин

127 | 31

2.16 ГБ

В этой теме нет новых непрочитанных сообщений. Лиллехаммер / Lilyhammer [03x01-06 из 08] (2014) HDTVRip 720p от HDClub | Сербин

34 | 32

9.93 ГБ

В этой теме нет новых непрочитанных сообщений. Лиллехаммер / Lilyhammer [02х01-05] (2013) HDTVRip | Ю.Сербин

0 | 13

2.98 ГБ

В этой теме нет новых непрочитанных сообщений. Лиллехаммер / Lilyhammer [03x01 из 08] (2014) HDTVRip от qqss44 | Amedia

142 | 10

550.77 МБ

В этой теме нет новых непрочитанных сообщений. Лиллехаммер / Lilyhammer [S01-03] (2012-2014) HDRip от qqss44 | Сербин

58 | 55

16.09 ГБ




Вы не можете начинать темы
Вы не можете отвечать на сообщения
Вы не можете редактировать свои сообщения
Вы не можете удалять свои сообщения
Вы не можете добавлять вложения

Перейти:  
Для Мосгорсуда, Роскомнадзора и рекламодателей: mosgorsud-torrent[собачка]yandex.ru
 Вход
ppkBB3cker v.2 © 2008-2014 @ PPK
[ Time : 0.050s | 16 Queries | GZIP : Off ]

Торрент трекер RUTOR.IN, Не можете зайти на rutor.org? Какой новый адрес рутор? Какое зеркало рутор? Не работает rutor.org и зеркала? Тогда наш торрент специально для вас. Rutor.in неофициальное зеркало rutor. В случае если у Вас заблокирован rutor или вдруг Вы не можете на него зайти, то Вы без труда сможете скачать бесплатно и без рекламы последние новинки кино, игр, сериалов и прочего у нас, на Rutor.in. Не нужно использовать прокси, чтобы зайти на рутор, достаточно воспользоваться нашим ресурсом. Все новые фильмы, игры, сериалы, книги и музыка за 2013 и 2014 годы через торрент бесплатно. Скачивайте фильмы в хорошем качестве, игры для пк, xbox, playstation без регистрации. У нас вы найдете новые Зарубежные сериалы и Русские сериалы 2013, 2014, 2015 годов. Оставайтесь с нами, качайте любимые фильмы, игры, сериалы, книги и музыку.