img image001 image001 image001 image001 image001 image001 image001 image001 image001 image001 image001 image001 image001 image001 image001

Planets Sun Sun Sun
Статистика раздачи
Автор: Nickolas3434 | Размер: 12.6 ГБ | Добавлен: 28 дек 2014
Раздают: 381    Качают: 164
Скачать торрент
Скачать торрент
Описание торрента

СообщениеДобавлено: 28 дек 2014 

Оригинальное название: Мажор
Год выпуска: 2014
Жанр: Криминальная драма
Режиссер: Константин Статский
В ролях: Павел Прилучный, Карина Разумовская, Дмитрий Шевченко, Денис Шведов, Александр Обласов, Никита Панфилов, Анна Андрусенко, Остап Ступка, Александр Дьяченко, Игорь Жижикин, Заза Чантурия, Дмитрий Гаврилов (II), Марина Дьяконенко, Алла Мартынюк, Саак Дурян

О фильме: Главный герой – Игорь Соколовский – сын высокопоставленного и богатого человека. Имея юридическое образование, Игорь не спешит найти ему применение, прожигая жизнь в ночных клубах с друзьями. Однажды, вступившись за товарища, Игорь ввязывается в драку с полицейским. Замяв историю, отец лишает Игоря всего, отправляя работать в то самое отделение полиции. Поначалу возненавидев свою новую жизнь, Игорь постепенно становится мужчиной, встречает любовь и задаётся целью найти убийцу матери...

Выпущено: Россия, Продюсерский центр «Среда»
Продолжительность: 12 х ~ 00:52:00
Перевод: Не требуется

Файл
Качество: DVB
Видео: MPEG-4 AVC, ~ 2800 Кбит/с, 720x576@1024х576
Аудио: MP2, 2 ch, 192 Кбит/с

General
ID : 1 (0x1)
Complete name : D:VytasRipaiMazhor.2014.DVB.Files-x5.Mazhor.2014.DVB.Files-x.ts
Format : MPEG-TS
File size : 1.01 GiB
Duration : 52mn 16s
Overall bit rate mode : Variable
Overall bit rate : 2 778 Kbps

Video
ID : 68 (0x44)
Menu ID : 1 (0x1)
Format : AVC
Format/Info : Advanced Video Codec
Format profile : High@L3.0
Format settings, CABAC : Yes
Format settings, ReFrames : 4 frames
Format settings, GOP : M=4, N=24
Codec ID : 27
Duration : 52mn 16s
Bit rate : 2 447 Kbps
Width : 720 pixels
Height : 576 pixels
Display aspect ratio : 16:9
Frame rate : 25.000 fps
Standard : Component
Color space : YUV
Chroma subsampling : 4:2:0
Bit depth : 8 bits
Scan type : Interlaced
Scan order : Top Field First
Bits/(Pixel*Frame) : 0.236
Stream size : 915 MiB (88%)
Color primaries : BT.601 PAL
Transfer characteristics : BT.470 System B, BT.470 System G
Matrix coefficients : BT.601
Color range : Limited

Audio
ID : 69 (0x45)
Menu ID : 1 (0x1)
Format : MPEG Audio
Format version : Version 1
Format profile : Layer 2
Codec ID : 3
Duration : 52mn 16s
Bit rate mode : Constant
Bit rate : 192 Kbps
Channel(s) : 2 channels
Sampling rate : 48.0 KHz
Compression mode : Lossy
Stream size : 71.8 MiB (7%)
Language : Russian





Релиз от:



   Похожие торренты   Торрент   Размер 
В этой теме нет новых непрочитанных сообщений. Мажор [01-02 из 12] (2014) DVB от Files-х

85 | 28

6.74 ГБ

В этой теме нет новых непрочитанных сообщений. Мажор [01-02 из 12] (2014) DVB от Files-х

134 | 85

8.66 ГБ

В этой теме нет новых непрочитанных сообщений. Мажор [01-02 из 12] (2014) DVB от Files-х

51 | 2

2.34 ГБ

В этой теме нет новых непрочитанных сообщений. Мажор [01-02х01-18 из 24] (2014-2016) HDTVRip-AVC от Files-x

13 | 26

15.16 ГБ

В этой теме нет новых непрочитанных сообщений. Мажор [01-02х01-18 из 24] (2014-2016) HDTVRip-AVC от Files-x

127 | 155

16.75 ГБ

В этой теме нет новых непрочитанных сообщений. Мажор - 2 [01-04 из 12] (2016) HDTVRip-AVC от Files-x

38 | 16

4.66 ГБ

В этой теме нет новых непрочитанных сообщений. Мажор - 2 [01-06 из 12] (2016) WEB-DLRip от Files-x

217 | 194

5.03 ГБ




Вы не можете начинать темы
Вы не можете отвечать на сообщения
Вы не можете редактировать свои сообщения
Вы не можете удалять свои сообщения
Вы не можете добавлять вложения

Перейти:  
Для Мосгорсуда, Роскомнадзора и рекламодателей: mosgorsud-torrent[собачка]yandex.ru
 Вход
ppkBB3cker v.2 © 2008-2014 @ PPK
[ Time : 0.910s | 18 Queries | GZIP : Off ]
CGP output time : 0.017s | 5 Queries | GZIP : Off

Торрент трекер RUTOR.IN, Не можете зайти на rutor.org? Какой новый адрес рутор? Какое зеркало рутор? Не работает rutor.org и зеркала? Тогда наш торрент специально для вас. Rutor.in неофициальное зеркало rutor. В случае если у Вас заблокирован rutor или вдруг Вы не можете на него зайти, то Вы без труда сможете скачать бесплатно и без рекламы последние новинки кино, игр, сериалов и прочего у нас, на Rutor.in. Не нужно использовать прокси, чтобы зайти на рутор, достаточно воспользоваться нашим ресурсом. Все новые фильмы, игры, сериалы, книги и музыка за 2013 и 2014 годы через торрент бесплатно. Скачивайте фильмы в хорошем качестве, игры для пк, xbox, playstation без регистрации. У нас вы найдете новые Зарубежные сериалы и Русские сериалы 2013, 2014, 2015 годов. Оставайтесь с нами, качайте любимые фильмы, игры, сериалы, книги и музыку.