img image001 image001 image001 image001 image001 image001 image001 image001 image001 image001 image001 image001 image001 image001 image001

Planets Sun Sun Sun
Статистика раздачи
Автор: Nickolas3434 | Размер: 13.02 ГБ | Добавлен: 31 дек 2014
Раздают: 255    Качают: 62
Скачать торрент
Скачать торрент
Описание торрента

СообщениеДобавлено: 31 дек 2014 

Информация о фильме
Название: Апостол
Год выхода: 2008
Жанр: шпионская драма
Режиссер: Юрий Мороз, Николай Лебедев, Геннадий Сидоров (Иван Иванов в титрах)
В ролях: Евгений Миронов, Николай Фоменко, Дарья Мороз, Андрей Смирнов, Юрий Назаров, Лариса Малеванная
О фильме:
Близнецы Павел и Пётр не виделись много лет: Павел осуждён как враг народа и отбывает ссылку на Соловках, Пётр — авторитетный вор-медвежатник, окончивший немецкую школу диверсантов. После заброски на советскую территорию, он попадает в руки контрразведки, но погибает при побеге.

Страна: Россия
Продолжительность: 03:02:08+03:00:19+03:00:21
Файл
Кодек: x264 2pass
Качество: DVDRip-AVC
Видео: 960x600, 3168 kbps, 25 fps
Звук: AC-3, stereo, 256 kbps (rus, remastered)
Субтитры: отсутствуют
Семпл
General
Complete name : Апостол (1-4 серии).mkv
Format : Matroska
Format version : Version 4 / Version 2
File size : 4.36 GiB
Duration : 3h 2mn
Overall bit rate : 3 425 Kbps
Movie name : Апостол, 1-4 серии
Encoded date : UTC 2014-12-26 17:55:10
Writing application : mkvmerge v7.4.0 ('Circles') 32bit built on Dec 12 2014 12:10:09
Writing library : libebml v1.3.0 + libmatroska v1.4.1
Video
ID : 1
Format : AVC
Format/Info : Advanced Video Codec
Format profile : High
Format settings, CABAC : Yes
Format settings, ReFrames : 4 frames
Codec ID : V_MPEG4/ISO/AVC
Duration : 3h 2mn
Bit rate : 3 168 Kbps
Width : 960 pixels
Height : 600 pixels
Display aspect ratio : 16:10
Frame rate mode : Constant
Frame rate : 25.000 fps
Color space : YUV
Chroma subsampling : 4:2:0
Bit depth : 8 bits
Scan type : Progressive
Bits/(Pixel*Frame) : 0.220
Stream size : 3.95 GiB (91%)
Title : Апостол, 1-4 серии
Writing library : x264 core 130 r2273 b3065e6
Encoding settings : cabac=1 / ref=4 / deblock=0:0:0 / analyse=0x3:0 / me=tesa / subme=9 / psy=0 / mixed_ref=0 / me_range=8 / chroma_me=0 / trellis=1 / 8x8dct=1 / cqm=0 / deadzone=21,11 / fast_pskip=0 / chroma_qp_offset=0 / threads=4 / lookahead_threads=1 / sliced_threads=0 / slices=38 / nr=0 / decimate=0 / interlaced=0 / bluray_compat=0 / constrained_intra=0 / bframes=4 / b_pyramid=1 / b_adapt=1 / b_bias=0 / direct=2 / weightb=1 / open_gop=0 / weightp=2 / keyint=72 / keyint_min=7 / scenecut=5 / intra_refresh=0 / rc=2pass / mbtree=0 / bitrate=3168 / ratetol=1.0 / qcomp=1.00 / qpmin=12 / qpmax=32 / qpstep=20 / cplxblur=20.0 / qblur=0.5 / ip_ratio=1.20 / pb_ratio=1.10 / aq=2:1.50
Language : Russian
Default : Yes
Forced : No
Audio
ID : 2
Format : AC-3
Format/Info : Audio Coding 3
Mode extension : CM (complete main)
Format settings, Endianness : Big
Codec ID : A_AC3
Duration : 3h 2mn
Bit rate mode : Constant
Bit rate : 256 Kbps
Channel(s) : 2 channels
Channel positions : Front: L R
Sampling rate : 48.0 KHz
Bit depth : 16 bits
Compression mode : Lossy
Stream size : 333 MiB (7%)
Title : Original (remastered)
Language : Russian
Default : Yes
Forced : No





   Похожие торренты   Торрент   Размер 
В этой теме нет новых непрочитанных сообщений. Апостол (4 серия из 12) (2008) DVDRip

4 | 3

351.33 МБ

В этой теме нет новых непрочитанных сообщений. Апостол [01-12 из 12] (2008) DVDRip-AVC от fandora

98 | 31

10.25 ГБ

В этой теме нет новых непрочитанных сообщений. Апостол [01-12 из 12] (2008) DVDRip от MediaClub | КПК

615 | 61

2.68 ГБ

В этой теме нет новых непрочитанных сообщений. Апостол [1-12 серий из 12] (2008) DVDRip

649 | 113

8.64 ГБ

В этой теме нет новых непрочитанных сообщений. Тринадцатый апостол - Избранный / Il tredicesimo apostolo - Il prescelto [S01] (2012) DVDRip | ТВ3

274 | 40

7.43 ГБ

В этой теме нет новых непрочитанных сообщений. Апостол Павел. Чудо на пути в Дамаск / Saint Paul (2000) DVDRip от Files-x

58 | 11

2.74 ГБ

В этой теме нет новых непрочитанных сообщений. Библейские сказания / Апостол Павел: Чудо на пути в Дамаск / San Paolo (2000) DVDRip-AVC | P

106 | 37

3.07 ГБ




Вы не можете начинать темы
Вы не можете отвечать на сообщения
Вы не можете редактировать свои сообщения
Вы не можете удалять свои сообщения
Вы не можете добавлять вложения

Перейти:  
Для Мосгорсуда, Роскомнадзора и рекламодателей: mosgorsud-torrent[собачка]yandex.ru
 Вход
ppkBB3cker v.2 © 2008-2014 @ PPK
[ Time : 0.062s | 16 Queries | GZIP : Off ]

Торрент трекер RUTOR.IN, Не можете зайти на rutor.org? Какой новый адрес рутор? Какое зеркало рутор? Не работает rutor.org и зеркала? Тогда наш торрент специально для вас. Rutor.in неофициальное зеркало rutor. В случае если у Вас заблокирован rutor или вдруг Вы не можете на него зайти, то Вы без труда сможете скачать бесплатно и без рекламы последние новинки кино, игр, сериалов и прочего у нас, на Rutor.in. Не нужно использовать прокси, чтобы зайти на рутор, достаточно воспользоваться нашим ресурсом. Все новые фильмы, игры, сериалы, книги и музыка за 2013 и 2014 годы через торрент бесплатно. Скачивайте фильмы в хорошем качестве, игры для пк, xbox, playstation без регистрации. У нас вы найдете новые Зарубежные сериалы и Русские сериалы 2013, 2014, 2015 годов. Оставайтесь с нами, качайте любимые фильмы, игры, сериалы, книги и музыку.