img image001 image001 image001 image001 image001 image001 image001 image001 image001 image001 image001 image001 image001 image001 image001

Planets Sun Sun Sun
Статистика раздачи
Автор: Nickolas3434 | Размер: 18.69 ГБ | Добавлен: 03 янв 2015
Раздают: 95    Качают: 51
Скачать торрент
Скачать торрент
Описание торрента

СообщениеДобавлено: 03 янв 2015 

Информация о фильме
Название: Ведьмы Ист-Энда
Оригинальное название: Witches of East End
Год выхода: 2014
Жанр: фэнтези, драма
Режиссер: Джон Скотт, Аллан Аркуш, Фред Гербер
В ролях: Джулия Ормонд, Дженна Деван-Татум, Рейчел Бостон, Медкен Эмик, Эрик Винтер, Дэниэл ДиТомассо, Джейсон Уинстон Джордж, Вирджиния Мэдсен, Тия Сиркар, Энтони Лемке
О фильме:
За основу сериала взят одноименный цикл романов американской писательницы Мелиссы де ла Круз. Жизнь героев совсем не безмятежна. Добрая, но грустная ведьма Джоанна (Ормонд) бессмертна и проклята — на протяжении веков она раз за разом вынуждена наблюдать смерти своих близких.
Судьбы не только членов семьи Бошам, но и многих других жителей маленького городка оказываются тесно переплетены между собой. Темы перерождения душ, магии, фатума и бессмертной любви занимают основную часть сюжета сериала.

Страна: США
Продолжительность: ~ 00:43:31
Перевод: Профессиональный (многоголосый закадровый) LostFilm
Файл
Кодек: MPEG-4 AVC/H.264
Качество: 720p WEB-DL
Видео: AVC, 1280x720 (16:9), 23.976 fps, ~4176 kbps, 0.189 bit/pixel
Звук:
Аудио rus: AC3, 48 kHz, 6 ch, 384 kbps |LostFilm
Аудио eng: AC3, 48 kHz, 6 ch, 384 kbps
Субтитры: softsub (SRT) русские, английские
Семпл
Работа со звуком: с (1-10) k-marat-s, с (11-13) Marchelush
Русские субтитры: от с (1,3,6-13) Mahonechka, с (2,4,5) KeRoB
Субтитры синхронизировал: Skyns61

01. Неуловимый зверь / A Moveable Beast
02. Возвращение блудного сына / The Son Also Rises
03. Старик и ключ / The Old Man and the Key
04. Гримуар братьев / The Brothers Grimoire
05. Ужасный рыцарь / Boogie Knight
06. Влюбилась мандрагора в деву / When a Mandragora Loves a Woman
07. Искусство тьмы / Art of Darkness
08. Секс, ложь и праздничный торт / Sex, Lies, and Birthday Cake
09. Дух короля / Smells Like King Spirit
10. Падение дома Бошамов / The Fall of the House of Beauchamp
11. Через По к спасению / Poe Way Out
12. Шкатулка в будущее / Box to the Future
13. По ком звонит заклятие / For Whom the Spell Tolls

Общее
Уникальный идентификатор : 239527376200702337776813512098359236524 (0xB4334B6D09D47667BC4D3BC7B0EF57AC)
Полное имя : G:FilmsWitches of East End.S02.DD5.1Witches.of.EAST.END.S02E01.720p.WEB-DL.Rus.Eng.mkv
Формат : Matroska
Версия формата : Version 4 / Version 2
Размер файла : 1,53 Гбайт
Продолжительность : 43 м.
Общий поток : 5045 Кбит/сек
Дата кодирования : UTC 2014-10-08 02:14:47
Программа кодирования : mkvmerge v7.2.0 ('On Every Street') 64bit built on Sep 13 2014 15:52:10
Библиотека кодирования : libebml v1.3.0 + libmatroska v1.4.1
DURATION : 00:43:02.335000000
NUMBER_OF_FRAMES : 726
NUMBER_OF_BYTES : 40804
_STATISTICS_WRITING_APP : mkvmerge v7.2.0 ('On Every Street') 64bit built on Sep 13 2014 15:52:10
_STATISTICS_WRITING_DATE_UTC : 2014-10-08 02:14:47
_STATISTICS_TAGS : BPS DURATION NUMBER_OF_FRAMES NUMBER_OF_BYTES
Видео
Идентификатор : 1
Формат : AVC
Формат/Информация : Advanced Video Codec
Профиль формата : High@L3.1
Параметр CABAC формата : Нет
Параметр ReFrames формата : 2 кадра
Идентификатор кодека : V_MPEG4/ISO/AVC
Продолжительность : 43 м.
Битрейт : 4176 Кбит/сек
Ширина : 1280 пикселей
Высота : 720 пикселей
Соотношение сторон : 16:9
Режим частоты кадров : Постоянный
Частота кадров : 23,976 кадра/сек
Цветовое пространство : YUV
Субдискретизация насыщенности : 4:2:0
Битовая глубина : 8 бит
Тип развёртки : Прогрессивная
Бит/(Пиксели*Кадры) : 0.189
Размер потока : 1,27 Гбайт (83%)
Язык : Russian
Default : Да
Forced : Нет
Основные цвета : BT.709
Характеристики трансфера : BT.709
Коэффициенты матрицы : BT.709
Аудио #1
Идентификатор : 2
Формат : AC-3
Формат/Информация : Audio Coding 3
Расширение режима : CM (complete main)
Параметр Endianness формата : Big
Идентификатор кодека : A_AC3
Продолжительность : 43 м.
Вид битрейта : Постоянный
Битрейт : 384 Кбит/сек
Каналы : 6 каналов
Расположение каналов : Front: L C R, Side: L R, LFE
Частота : 48,0 КГц
Битовая глубина : 16 бит
Метод сжатия : С потерями
Размер потока : 120 Мбайт (8%)
Заголовок : LostFilm
Язык : Russian
Default : Да
Forced : Нет
Аудио #2
Идентификатор : 3
Формат : AC-3
Формат/Информация : Audio Coding 3
Расширение режима : CM (complete main)
Параметр Endianness формата : Big
Идентификатор кодека : A_AC3
Продолжительность : 43 м.
Вид битрейта : Постоянный
Битрейт : 384 Кбит/сек
Каналы : 6 каналов
Расположение каналов : Front: L C R, Side: L R, LFE
Частота : 48,0 КГц
Битовая глубина : 16 бит
Метод сжатия : С потерями
Размер потока : 120 Мбайт (8%)
Заголовок : English
Язык : English
Default : Нет
Forced : Нет
Текст #1
Идентификатор : 4
Формат : UTF-8
Идентификатор кодека : S_TEXT/UTF8
Идентификатор кодека/Информация : UTF-8 Plain Text
Заголовок : notabenoid
Язык : Russian
Default : Нет
Forced : Нет
Текст #2
Идентификатор : 5
Формат : UTF-8
Идентификатор кодека : S_TEXT/UTF8
Идентификатор кодека/Информация : UTF-8 Plain Text
Заголовок : CC
Язык : English
Default : Нет
Forced : Нет


Когда раздача ведётся путём добавления новых серий, при каждом добавлении создётся новый торрент. Чтобы начать докачку новой серии, пользователям необходимо сделать следующее:
(1) остановить скачивание,
(2) удалить старый торрент у себя из клиента (старые серии удалять не надо),
(3) скачать новый торрент и запустить его у себя в клиенте вместо старого, при этом указать клиенту путь в старую папку, куда и должно происходить скачивание новых серий.
Ваш клиент при этом должен произвести хеширование (проверку) старой папки (если не производит сам - помогите ему сделать это), и будет докачивать только те серии, которых у вас ещё нет. Старые серии при этом не удаляются, а продолжают раздаваться!
Eсли вы уже удалили старые серии, то предотвратить повторную закачку старых серий можно, отжав галочку в соответсвующих местах при запуске нового торрента. По возможности, желательно не удалять старые серии как можно дольше, чтобы релизёр не столько продолжал раздавать старые серии, а смог сконцентрироваться на новых.

Релиз от: skyns61



   Похожие торренты   Торрент   Размер 
В этой теме нет новых непрочитанных сообщений. Ведьмы Ист-Энда / Witches of East End [02x01 из 13] (2014) WEB-DLRip | LostFilm

317 | 51

312.76 МБ

В этой теме нет новых непрочитанных сообщений. Ведьмы Ист-Энда / Witches of East End [02x01-11 из 13] (2014) WEB-DLRip | LostFilm

295 | 376

3.98 ГБ

В этой теме нет новых непрочитанных сообщений. Ведьмы Ист-Энда / Witches of East End [02x01-03 из 13] (2014) WEB-DLRip | LostFilm

261 | 232

1.03 ГБ

В этой теме нет новых непрочитанных сообщений. Ведьмы Ист-Энда / Witches of East End [02x01-09 из 13] (2014) WEB-DLRip | LostFilm

131 | 332

3.4 ГБ

В этой теме нет новых непрочитанных сообщений. Ведьмы Ист-Энда / Witches of East End [02x01-10 из 13] (2014) WEB-DLRip | LostFilm

111 | 237

3.67 ГБ

В этой теме нет новых непрочитанных сообщений. Ведьмы Ист-Энда / Witches of East End [02x01-02 из 13] (2014) WEB-DLRip | LostFilm

253 | 264

750.46 МБ

В этой теме нет новых непрочитанных сообщений. Ведьмы Ист-Энда / Witches of East End [02x01-04 из 13] (2014) WEB-DLRip | LostFilm

242 | 238

1.75 ГБ




Вы не можете начинать темы
Вы не можете отвечать на сообщения
Вы не можете редактировать свои сообщения
Вы не можете удалять свои сообщения
Вы не можете добавлять вложения

Перейти:  
Для Мосгорсуда, Роскомнадзора и рекламодателей: mosgorsud-torrent[собачка]yandex.ru
 Вход
ppkBB3cker v.2 © 2008-2014 @ PPK
[ Time : 0.034s | 15 Queries | GZIP : Off ]

Торрент трекер RUTOR.IN, Не можете зайти на rutor.org? Какой новый адрес рутор? Какое зеркало рутор? Не работает rutor.org и зеркала? Тогда наш торрент специально для вас. Rutor.in неофициальное зеркало rutor. В случае если у Вас заблокирован rutor или вдруг Вы не можете на него зайти, то Вы без труда сможете скачать бесплатно и без рекламы последние новинки кино, игр, сериалов и прочего у нас, на Rutor.in. Не нужно использовать прокси, чтобы зайти на рутор, достаточно воспользоваться нашим ресурсом. Все новые фильмы, игры, сериалы, книги и музыка за 2013 и 2014 годы через торрент бесплатно. Скачивайте фильмы в хорошем качестве, игры для пк, xbox, playstation без регистрации. У нас вы найдете новые Зарубежные сериалы и Русские сериалы 2013, 2014, 2015 годов. Оставайтесь с нами, качайте любимые фильмы, игры, сериалы, книги и музыку.