img image001 image001 image001 image001 image001 image001 image001 image001 image001 image001 image001 image001 image001 image001 image001

Planets Sun Sun Sun
Статистика раздачи
Автор: Nickolas3434 | Размер: 2.9 ГБ | Добавлен: 15 янв 2015
Раздают: 626    Качают: 102
Скачать торрент
Скачать торрент
Описание торрента

СообщениеДобавлено: 15 янв 2015 

«Его правда - его оружие»


Производство: Россия / Студия "Тримира", "ДТ Продакшн"
Год выпуска: 2012
Жанр: боевик, криминал, детектив
Продолжительность: 00:51:12 + 00:49:10 + 00:48:10 + 00:49:05 (в среднем 49 минут на серию)
Субтитры: Нет
Режиссёр: Владимир Епифанцев, Александр Аншютц
В ролях: Владимир Епифанцев, Павел Климов, Анастасия Веденская, Сергей Векслер, Иван Краско, Юрий Чурсин, Эдуард Федашко, Сергей Мурзин, Сергей Бадюк, Юрий Сысоев, Михаил Сидаш...
Описание: Приехав, в небольшой российский городок, чтобы навестить старого боевого товарища, майор элитных войск Шаманов становится свидетелем страшных событий — местное население, простые люди, лишены прав, обесчещены, их достоинство растоптано. Шаманову остается либо пройти мимо, закрыв глаза, либо начать действовать, противопоставив себя порочной властной системе, годами оттачиваемой и набравшей смертельную силу…





Исходник: DVD9 R5
Качество: DVDRip-AVC
Формат: MKV
Видео: 720х572@1016x572 (16х9) H264 25.0 fps 1652 Kbps 0.160 bit/pix
Аудио: 48 kHz, AC3 Dolby Digital, 5.1 ch, 448.00 kbps
Раздача от:
1. Шаман, бывший боец спецназа, приезжает в маленький городок проведать армейского друга. В городке чистота и порядок, преступность давно побеждена. Глава полиции майор Гаврилов держит жителей в страхе, собирая с них дань. Молодой полицейский Зубов не хочет участвовать в незаконных действиях своего начальника, но ему пока не хватает решимости для противодействия. Первый же милицейский патруль доставляет Шамана в отделение. Гаврилов пытается вызвать Шамана на диалог, но разговора не получается. Увидев, как майор пытается изнасиловать девушку Настю, Шаман не может оставаться в стороне…
2. Гаврилов, который должен отправить своих людей на розыск сбежавших из колонии преступников, не выполняет приказ начальства из центра и бросает все силы на погоню за Шаманом. Но Шаман - опытный боец. Вскоре преследователи, несущие потери, начинают сомневаются в законности происходящего. Гаврилов убеждает их в том, что Шаманов – контуженный, опасный для окружающих маньяк...
3. Раненого Шамана обнаруживает дед Насти. Девушка скрывается от мести Гаврилова у деда в деревне, вместе они выхаживают Шамана. Сашка, незадачливый поклонник Насти, звонит в полицию и сообщает о местонахождении спецназовца. Зубов пишет письмо генералу Усову, где рассказывает о гавриловском беспределе. Беглые уголовники нападают на деревушку, где прячется Шаман...
4. Шаман возвращается в город и прорывается в здание полиции. Захватив Гаврилова, он остается с ним в кабинете один на один. В это время полковник Фомин и генерал Усов узнают из письма Зубова о деятельности Гаврилова. К ним приходит Настя и рассказывает об угрозе, нависшей из-за нее над Шаманом. Фомин и Усов начинают немедленно действовать. Здание полиции окружают бойцы спецназа...

Общее
Полное имя : 1.mkv
Формат : Matroska
Версия формата : Version 2
Размер файла : 770 Мбайт
Продолжительность : 51 м.
Общий поток : 2102 Кбит/сек
Дата кодирования : UTC 2012-05-14 18:29:41
Программа кодирования : mkvmerge v5.0.1 ('Es ist Sommer') built on Nov 6 2011 16:23:40
Библиотека кодирования : libebml v1.2.2 + libmatroska v1.3.0
Видео
Идентификатор : 1
Формат : AVC
Формат/Информация : Advanced Video Codec
Профиль формата : High@L4.1
Параметр CABAC формата : Да
Параметр ReFrames формата : 11 кадров
Идентификатор кодека : V_MPEG4/ISO/AVC
Продолжительность : 51 м.
Битрейт : 1652 Кбит/сек
Ширина : 720 пикселей
Высота : 572 пикселя
Соотношение сторон : 16:9
Частота кадров : 25,000 кадров/сек
Цветовое пространство : YUV
Субдискретизация насыщенности : 4:2:0
Битовая глубина : 8 бит
Тип развёртки : Прогрессивная
Бит/(Пиксели*Кадры) : 0.160
Размер потока : 590 Мбайт (77%)
Библиотека кодирования : x264 core 119 r2106 07efeb4
Настройки программы : cabac=1 / ref=11 / deblock=1:0:0 / analyse=0x3:0x113 / me=umh / subme=10 / psy=1 / psy_rd=1.00:0.20 / mixed_ref=1 / me_range=32 / chroma_me=1 / trellis=2 / 8x8dct=1 / cqm=0 / deadzone=21,11 / fast_pskip=0 / chroma_qp_offset=-3 / threads=6 / sliced_threads=0 / nr=0 / decimate=0 / interlaced=0 / bluray_compat=0 / constrained_intra=0 / bframes=8 / b_pyramid=2 / b_adapt=2 / b_bias=0 / direct=3 / weightb=1 / open_gop=0 / weightp=2 / keyint=250 / keyint_min=25 / scenecut=40 / intra_refresh=0 / rc_lookahead=60 / rc=2pass / mbtree=1 / bitrate=1652 / ratetol=1.0 / qcomp=0.60 / qpmin=0 / qpmax=69 / qpstep=4 / cplxblur=20.0 / qblur=0.5 / ip_ratio=1.40 / aq=1:1.00
Default : Да
Forced : Нет
Аудио
Идентификатор : 2
Формат : AC-3
Формат/Информация : Audio Coding 3
Расширение режима : CM (complete main)
Параметр Endianness формата : Big
Идентификатор кодека : A_AC3
Продолжительность : 51 м.
Вид битрейта : Постоянный
Битрейт : 448 Кбит/сек
Каналы : 6 каналов
Расположение каналов : Front: L C R, Side: L R, LFE
Частота : 48,0 КГц
Битовая глубина : 16 бит
Метод сжатия : С потерями
Размер потока : 164 Мбайт (21%)
Default : Да
Forced : Нет






   Похожие торренты   Торрент   Размер 
В этой теме нет новых непрочитанных сообщений. Кремень. Освобождение [01-04 из 04] (2013) DVDRip-AVC от New-Team | лицензия

411 | 73

3.1 ГБ

В этой теме нет новых непрочитанных сообщений. Кремень. Освобождение [01-04 из 04] (2013) DVDRip от New-Team | лицензия

758 | 129

3.1 ГБ

В этой теме нет новых непрочитанных сообщений. Кремень [01-04 из 04] (2012) DVDRip-AVC

223 | 54

2.74 ГБ

В этой теме нет новых непрочитанных сообщений. Кремень [01-04 из 04] (2012) DVDRip

392 | 113

2.74 ГБ

В этой теме нет новых непрочитанных сообщений. Кремень [01-04 из 04] (2012) DVDRip | КПК от Multibits

35 | 6

1.3 ГБ

В этой теме нет новых непрочитанных сообщений. Кремень [01-04 из 04] (2012) DVDRip от MAGNAT231 | КПК

190 | 40

798.42 МБ

В этой теме нет новых непрочитанных сообщений. Кремень [01-04 из 04] (2012) DVDRip | КПК от Kino@rena

50 | 10

655.21 МБ




Вы не можете начинать темы
Вы не можете отвечать на сообщения
Вы не можете редактировать свои сообщения
Вы не можете удалять свои сообщения
Вы не можете добавлять вложения

Перейти:  
Для Мосгорсуда, Роскомнадзора и рекламодателей: mosgorsud-torrent[собачка]yandex.ru
 Вход
ppkBB3cker v.2 © 2008-2014 @ PPK
[ Time : 0.031s | 15 Queries | GZIP : On ]

Торрент трекер RUTOR.IN, Не можете зайти на rutor.org? Какой новый адрес рутор? Какое зеркало рутор? Не работает rutor.org и зеркала? Тогда наш торрент специально для вас. Rutor.in неофициальное зеркало rutor. В случае если у Вас заблокирован rutor или вдруг Вы не можете на него зайти, то Вы без труда сможете скачать бесплатно и без рекламы последние новинки кино, игр, сериалов и прочего у нас, на Rutor.in. Не нужно использовать прокси, чтобы зайти на рутор, достаточно воспользоваться нашим ресурсом. Все новые фильмы, игры, сериалы, книги и музыка за 2013 и 2014 годы через торрент бесплатно. Скачивайте фильмы в хорошем качестве, игры для пк, xbox, playstation без регистрации. У нас вы найдете новые Зарубежные сериалы и Русские сериалы 2013, 2014, 2015 годов. Оставайтесь с нами, качайте любимые фильмы, игры, сериалы, книги и музыку.