img image001 image001 image001 image001 image001 image001 image001 image001 image001 image001 image001 image001 image001 image001 image001

Planets Sun Sun Sun
Статистика раздачи
Автор: Nickolas3434 | Размер: 39.78 ГБ | Добавлен: 22 янв 2015
Раздают: 7    Качают: 21
Скачать торрент
Скачать торрент
Описание торрента

СообщениеДобавлено: 22 янв 2015 

Информация о фильме
Название: Кузей Гюней
Оригинальное название: Kuzey Güney
Год выхода: 2013
Жанр: драма
Режиссер: Мехмет Ада Озтекин / Mehmet Ada Öztekin
В ролях: Кыванч Татлытуг, Бугра Гюльсой, Ойкю Караель, Мустафа Авкиран, Семра Динджер, Онур Озтюрк, Зеррин Текиндор, Бадэ Ишчил, Рыза Коджаоглу, Хазар Эргючлю
О фильме:
Кузей — бросил школу, отучившись только в начальных классах, в районе известен как шальной, в смысле, вздорный, непутёвый, ничем не занятый и постоянно завидующий своему старшему брату Гюнею.
Гюней — учиться на экономическом факультете, в это же время работает помощником на поле для гольфа, чтобы накопить денег для учёбы в магистратуре. Его возлюбленная Айше особых целей перед собой не ставит, то есть, не амбициозна.
Джемре — дочь местного парикмахера Гюльтен, работает официанткой в кафе, своей жизнью она не очень довольна, но она любит Гюнея. Её мать делает всё, на что способна, чтобы дочь могла стать актрисой.
Официальный сайт
Страна: Турция
Студия: Ay Yapım, Kanal D
Продолжительность: ~01:40:00 серия
Перевод: Любительский одноголосый закадровый (Матвей Кенс, turok1990)
Файл
Кодек: XviD / MP3
Качество: HDTVRip
Видео: MPEG4, XviD, 720x400 (16:9), 25.000 fps, 1 675 Kbps (0.233 bit/pixel)
Звук: MP3, 48.0 KHz, 2 ch, 224 Kbps, CBR
General
Complete name : /Kuzey.Guney.2012.2.sezon.L1.HDTVRip/Kuzey.Guney.2.sezon.01.(41).seriya.2012.HDTVRip.avi
Format : AVI
Format/Info : Audio Video Interleave
File size : 1.56 GiB
Duration : 1h 57mn
Overall bit rate : 1 909 Kbps
Video
ID : 0
Format : MPEG-4 Visual
Format profile : Advanced Simple@L5
Format settings, BVOP : 2
Format settings, QPel : No
Format settings, GMC : No warppoints
Format settings, Matrix : Default (H.263)
Codec ID : XVID
Codec ID/Hint : XviD
Duration : 1h 57mn
Bit rate : 1 675 Kbps
Width : 720 pixels
Height : 400 pixels
Display aspect ratio : 16:9
Frame rate : 25.000 fps
Color space : YUV
Chroma subsampling : 4:2:0
Bit depth : 8 bits
Scan type : Progressive
Compression mode : Lossy
Bits/(Pixel*Frame) : 0.233
Stream size : 1.37 GiB (88%)
Writing library : XviD 64
Audio
ID : 1
Format : MPEG Audio
Format version : Version 1
Format profile : Layer 3
Mode : Joint stereo
Mode extension : MS Stereo
Codec ID : 55
Codec ID/Hint : MP3
Duration : 1h 57mn
Bit rate mode : Constant
Bit rate : 224 Kbps
Channel(s) : 2 channels
Sampling rate : 48.0 KHz
Compression mode : Lossy
Stream size : 188 MiB (12%)
Alignment : Aligned on interleaves
Interleave, duration : 40 ms (1.00 video frame)
Interleave, preload duration : 504 ms
Writing library : LAME3.98r
Encoding settings : -m j -V 4 -q 3 -lowpass 19.4 -b 224



   Похожие торренты   Торрент   Размер 
В этой теме нет новых непрочитанных сообщений. Кузей Гюней / Kuzey Güney [S01] (2011) HDTVRip | P

58 | 45

59.76 ГБ

В этой теме нет новых непрочитанных сообщений. Без свидетелей [02x01 из 45] (2013) HDTVRip 720p от MediaClub

8 | 0

597.75 МБ

В этой теме нет новых непрочитанных сообщений. Элементарно / Elementary [02x01-22] (2013) HDTVRip | Kerob

16 | 264

9.3 ГБ

В этой теме нет новых непрочитанных сообщений. Стрела / Arrow [02x01-19] (2013) HDTVRip | Kerob

77 | 1665

8.17 ГБ

В этой теме нет новых непрочитанных сообщений. Грейсленд / Graceland [02x01-09] (2013) HDTVRip | Kerob

35 | 102

4.07 ГБ

В этой теме нет новых непрочитанных сообщений. Борджиа (ФГ) / Borgia [02x01-07] (2013) HDTVRip 720p | Sub

4 | 5

7.11 ГБ

В этой теме нет новых непрочитанных сообщений. Грейсленд / Graceland [02x01-08] (2013) HDTVRip | Kerob

22 | 116

3.69 ГБ




Вы не можете начинать темы
Вы не можете отвечать на сообщения
Вы не можете редактировать свои сообщения
Вы не можете удалять свои сообщения
Вы не можете добавлять вложения

Перейти:  
Для Мосгорсуда, Роскомнадзора и рекламодателей: mosgorsud-torrent[собачка]yandex.ru
 Вход
ppkBB3cker v.2 © 2008-2014 @ PPK
[ Time : 0.059s | 16 Queries | GZIP : Off ]

Торрент трекер RUTOR.IN, Не можете зайти на rutor.org? Какой новый адрес рутор? Какое зеркало рутор? Не работает rutor.org и зеркала? Тогда наш торрент специально для вас. Rutor.in неофициальное зеркало rutor. В случае если у Вас заблокирован rutor или вдруг Вы не можете на него зайти, то Вы без труда сможете скачать бесплатно и без рекламы последние новинки кино, игр, сериалов и прочего у нас, на Rutor.in. Не нужно использовать прокси, чтобы зайти на рутор, достаточно воспользоваться нашим ресурсом. Все новые фильмы, игры, сериалы, книги и музыка за 2013 и 2014 годы через торрент бесплатно. Скачивайте фильмы в хорошем качестве, игры для пк, xbox, playstation без регистрации. У нас вы найдете новые Зарубежные сериалы и Русские сериалы 2013, 2014, 2015 годов. Оставайтесь с нами, качайте любимые фильмы, игры, сериалы, книги и музыку.
cron