img image001 image001 image001 image001 image001 image001 image001 image001 image001 image001 image001 image001 image001 image001 image001

Planets Sun Sun Sun
Статистика раздачи
Автор: Nickolas3434 | Размер: 5.59 ГБ | Добавлен: 25 янв 2015
Раздают: 12    Качают: 5
Скачать торрент
Скачать торрент
Описание торрента

СообщениеДобавлено: 25 янв 2015 

Страна: Южная Корея
Год выпуска: 2014 г.
Жанр: Психология, криминал, драма
Продолжительность: 10 эпизодов по ~60 минут.
Режиссер: Sung Yong-Il
В ролях:
Сон Чхан Ый - профессор Пэк Нам Бон (доктор Фрост)
Чон Ын Чхэ - Юн Сон А
Ли Юн Чжи - профессор Сон
Сон Чи Ру - детектив Нам Тхэ Бон
Чхве Чон У - Чон Сан Вон (декан факультета психологии)


Описание: В центре истории - доктор психологии Пэк Нам Бон. Он настоящий гений, однако из-за перенесенной в детстве операции на мозге не способен сопереживать. За свою неэмоциональность он получает прозвище "доктор Фрост".
Благодаря тонкому уму и удивительной способности подмечать мелочи, он становится помощником полиции при раскрытии преступлений.
(Дорама основана на популярной веб-манхве).


Озвучка - Любительская (двухголосая закадровая)
Kinko (Женский)
Aleister (Мужской)
Семпл


Качество видео: HDTVRip (720р)
Формат видео: AVI
Тип релиза: Полухардсаб (надписи, пояснения терминов)
Видео: XviD, 1280x720, 3000 Кбит/сек, 29.970 кадров/сек
Аудио: AC-3, 2.0, 192 кбит/с, 48,0 кГц


1. Другое желание.
2. Провал в памяти.
3. Как носить маску.
4. Опасная любовь.
5. Память.

General
Complete name : D:Dr.Frost (HDTVRip 1280x720 XviD AC-3 ru) [Kinko,Aleister]Dr.Frost 01 [Kinko,Aleister].avi
Format : AVI
Format/Info : Audio Video Interleave
File size : 1.32 GiB
Duration : 58mn 39s
Overall bit rate : 3 211 Kbps
Writing application : VirtualDubMod 1.5.10.2 (build 2542/release)
Writing library : VirtualDubMod build 2542/release
Video
ID : 0
Format : MPEG-4 Visual
Format profile : Advanced Simple@L5
Format settings, BVOP : 2
Format settings, QPel : No
Format settings, GMC : No warppoints
Format settings, Matrix : Default (H.263)
Muxing mode : Packed bitstream
Codec ID : XVID
Codec ID/Hint : XviD
Duration : 58mn 39s
Bit rate : 3 008 Kbps
Width : 1 280 pixels
Height : 720 pixels
Display aspect ratio : 16:9
Frame rate : 29.970 fps
Color space : YUV
Chroma subsampling : 4:2:0
Bit depth : 8 bits
Scan type : Progressive
Compression mode : Lossy
Bits/(Pixel*Frame) : 0.109
Stream size : 1.23 GiB (94%)
Writing library : XviD 73
Audio
ID : 1
Format : AC-3
Format/Info : Audio Coding 3
Mode extension : CM (complete main)
Format settings, Endianness : Big
Codec ID : 2000
Duration : 58mn 39s
Bit rate mode : Constant
Bit rate : 192 Kbps
Channel(s) : 2 channels
Channel positions : Front: L R
Sampling rate : 48.0 KHz
Bit depth : 16 bits
Compression mode : Lossy
Stream size : 80.6 MiB (6%)
Alignment : Split accross interleaves
Interleave, duration : 33 ms (1.00 video frame)
Interleave, preload duration : 500 ms


[/b][/b]



   Похожие торренты   Торрент   Размер 
В этой теме нет новых непрочитанных сообщений. Доктор Фрост / Dr. Frost [01-04] (2014) HDTVRip 720р

54 | 18

4.63 ГБ

В этой теме нет новых непрочитанных сообщений. Доктор Фрост / Dr. Frost [01-09] (2014) HDTVRip 720р | L2

10 | 5

10.19 ГБ

В этой теме нет новых непрочитанных сообщений. Доктор Фрост / Dr. Frost [01-06] (2014) HDTVRip 720р | L2

18 | 12

7.01 ГБ

В этой теме нет новых непрочитанных сообщений. Доктор Фрост / Dr. Frost [01-08] (2014) HDTVRip 720р | L2

0 | 4

9.18 ГБ

В этой теме нет новых непрочитанных сообщений. Доктор Фрост / Dr. Frost [01-10] (2014) HDTVRip 720р | L2

21 | 10

11.38 ГБ

В этой теме нет новых непрочитанных сообщений. Доктор Фрост / Dr. Frost [01-07] (2014) HDTVRip 720р | L2

2 | 4

8.1 ГБ

В этой теме нет новых непрочитанных сообщений. Доктор Фрост / Dr. Frost [01-10] (2014) TVRip | L2

32 | 12

6.47 ГБ




Вы не можете начинать темы
Вы не можете отвечать на сообщения
Вы не можете редактировать свои сообщения
Вы не можете удалять свои сообщения
Вы не можете добавлять вложения

Перейти:  
Для Мосгорсуда, Роскомнадзора и рекламодателей: mosgorsud-torrent[собачка]yandex.ru
 Вход
ppkBB3cker v.2 © 2008-2014 @ PPK
[ Time : 0.984s | 16 Queries | GZIP : Off ]

Торрент трекер RUTOR.IN, Не можете зайти на rutor.org? Какой новый адрес рутор? Какое зеркало рутор? Не работает rutor.org и зеркала? Тогда наш торрент специально для вас. Rutor.in неофициальное зеркало rutor. В случае если у Вас заблокирован rutor или вдруг Вы не можете на него зайти, то Вы без труда сможете скачать бесплатно и без рекламы последние новинки кино, игр, сериалов и прочего у нас, на Rutor.in. Не нужно использовать прокси, чтобы зайти на рутор, достаточно воспользоваться нашим ресурсом. Все новые фильмы, игры, сериалы, книги и музыка за 2013 и 2014 годы через торрент бесплатно. Скачивайте фильмы в хорошем качестве, игры для пк, xbox, playstation без регистрации. У нас вы найдете новые Зарубежные сериалы и Русские сериалы 2013, 2014, 2015 годов. Оставайтесь с нами, качайте любимые фильмы, игры, сериалы, книги и музыку.
cron