img image001 image001 image001 image001 image001 image001 image001 image001 image001 image001 image001 image001 image001 image001 image001

Planets Sun Sun Sun
Статистика раздачи
Автор: Nickolas3434 | Размер: 1.43 ГБ | Добавлен: 18 фев 2015
Раздают: 20    Качают: 7
Скачать торрент
Скачать торрент
Описание торрента

СообщениеДобавлено: 18 фев 2015 

Информация о фильме
Оригинальное название: Русский транзит
Год выхода: 1994
Жанр: Детектив, боевик, криминал
Режиссер: Виктор Титов
В ролях: Евгений Сидихин, Анна Самохина, Андрей Ургант, Игорь Дмитриев, Владимир Илларионов, Александр Сластин, Юлия Джербинова, Игорь Головин, Анатолий Равикович, Виктор Степанов, Евгений Платохин
О фильме:
Бывший профессиональный спортсмен работает в ресторане "вышибалой". Случай вынуждает героя использовать физические способности в борьбе с новыми хозяевами жизни. События разворачиваются в перестроечную эпоху. В 1981 году партия дала наказ запретить каратэ. Нарушавшие сажались в тюрьмы или оставались на обочине жизни. Такая же участь постигла и героя картины (Сидихин), имевшего четвертый "дан" и преподававшего этот вид спорта. Благодаря все тому же виду спорта, он выжил в Афганистане. Жизнь направила энтузиастов боевых искусств по разным дорожкам, а Сидихин пристроился в бар "Пальмира". Вроде бы все шло терпимо, но вот его вызывают в милицию, обвиняют в вымогательстве, поджоге машины, а затем и в убийстве крупного дельца — торговца антиквариатом. Понимая, что был "подставлен", Сидихин начинает собственное расследование, которое выводит его на поставки наркотиков с Ближнего Востока в Америку через Санкт-Петербург — "Русский Транзит"...

Страна: Россия
Студия: Ленфильм
Продолжительность: 6 х ~ 00:55:00
Перевод: Не требуется
Файл
Формат: MP4
Качество: DVDRip | КПК
Видео: MPEG-4 AVC (x264), 640x400, ~500 kbps, 25.000 fps
Аудио: AAC LC, 48.0 KHz, 2 ch, 128 Kbps
Субтитры: Нет
Семпл

Complete name : E:KinoRusskij.Tranzit.1994.AVC.DVDRip.KPK.GeneralfilmRusskij.Tranzit.1994.(3.seriya.iz.6).AVC.DVDRip.KPK.Generalfilm.mp4
Format : MPEG-4
Format profile : Base Media
Codec ID : isom
File size : 249 MiB
Duration : 55mn 4s
Overall bit rate mode : Variable
Overall bit rate : 632 Kbps
Encoded date : UTC 2015-01-06 18:09:11
Tagged date : UTC 2015-01-06 18:09:11
Video
ID : 1
Format : AVC
Format/Info : Advanced Video Codec
Format profile : High@L4.1
Format settings, CABAC : Yes
Format settings, ReFrames : 8 frames
Codec ID : avc1
Codec ID/Info : Advanced Video Coding
Duration : 55mn 4s
Bit rate : 500 Kbps
Maximum bit rate : 2 668 Kbps
Width : 640 pixels
Height : 400 pixels
Display aspect ratio : 16:10
Frame rate mode : Constant
Frame rate : 25.000 fps
Color space : YUV
Chroma subsampling : 4:2:0
Bit depth : 8 bits
Scan type : Progressive
Bits/(Pixel*Frame) : 0.078
Stream size : 197 MiB (79%)
Writing library : x264 core 130 r2273 b3065e6
Encoding settings : cabac=1 / ref=8 / deblock=1:-1:-1 / analyse=0x3:0x133 / me=umh / subme=10 / psy=1 / psy_rd=1.00:0.00 / mixed_ref=1 / me_range=24 / chroma_me=1 / trellis=2 / 8x8dct=1 / cqm=0 / deadzone=21,11 / fast_pskip=1 / chroma_qp_offset=-2 / threads=3 / lookahead_threads=1 / sliced_threads=0 / nr=0 / decimate=1 / interlaced=0 / bluray_compat=0 / constrained_intra=0 / bframes=8 / b_pyramid=2 / b_adapt=2 / b_bias=0 / direct=3 / weightb=1 / open_gop=0 / weightp=2 / keyint=250 / keyint_min=126 / scenecut=40 / intra_refresh=0 / rc_lookahead=40 / rc=2pass / mbtree=1 / bitrate=500 / ratetol=1.0 / qcomp=0.60 / qpmin=0 / qpmax=69 / qpstep=4 / cplxblur=20.0 / qblur=0.5 / ip_ratio=1.40 / aq=1:1.00
Encoded date : UTC 2015-01-06 18:09:11
Tagged date : UTC 2015-01-06 18:10:11
Audio
ID : 2
Format : AAC
Format/Info : Advanced Audio Codec
Format profile : LC
Codec ID : 40
Duration : 55mn 4s
Bit rate mode : Variable
Bit rate : 128 Kbps
Maximum bit rate : 191 Kbps
Channel count : 2 channels
Channel positions : Front: L R
Sampling rate : 48.0 KHz
Compression mode : Lossy
Delay relative to video : 80ms
Stream size : 50.5 MiB (20%)
Encoded date : UTC 2015-01-06 18:10:04
Tagged date : UTC 2015-01-06 18:10:11

Релиз от:



   Похожие торренты   Торрент   Размер 
В этой теме нет новых непрочитанных сообщений. Русский транзит [01-06 из 06] (1994) DVDRip от Generalfilm

97 | 32

3.85 ГБ

В этой теме нет новых непрочитанных сообщений. Русский счет (1994) DVDRip

27 | 10

1.17 ГБ

В этой теме нет новых непрочитанных сообщений. Русский счет (1994) DVDRip

1 | 0

746.48 МБ

В этой теме нет новых непрочитанных сообщений. Транзит / Transit (2012) HDRip | КПК от Generalfilm

1 | 3

284.45 МБ

В этой теме нет новых непрочитанных сообщений. Золотой транзит [01-02 из 02] (2016) HDTVRip от GeneralFilm

2 | 0

744.88 МБ

В этой теме нет новых непрочитанных сообщений. Знают ли русские русский? (2009) DVDRip от Generalfilm

3 | 2

4.11 ГБ

В этой теме нет новых непрочитанных сообщений. Русский мат. Антология для филологов (1994) PDF

33 | 4

966.94 КБ




Вы не можете начинать темы
Вы не можете отвечать на сообщения
Вы не можете редактировать свои сообщения
Вы не можете удалять свои сообщения
Вы не можете добавлять вложения

Перейти:  
Для Мосгорсуда, Роскомнадзора и рекламодателей: mosgorsud-torrent[собачка]yandex.ru
 Вход
ppkBB3cker v.2 © 2008-2014 @ PPK
[ Time : 0.047s | 17 Queries | GZIP : Off ]

Торрент трекер RUTOR.IN, Не можете зайти на rutor.org? Какой новый адрес рутор? Какое зеркало рутор? Не работает rutor.org и зеркала? Тогда наш торрент специально для вас. Rutor.in неофициальное зеркало rutor. В случае если у Вас заблокирован rutor или вдруг Вы не можете на него зайти, то Вы без труда сможете скачать бесплатно и без рекламы последние новинки кино, игр, сериалов и прочего у нас, на Rutor.in. Не нужно использовать прокси, чтобы зайти на рутор, достаточно воспользоваться нашим ресурсом. Все новые фильмы, игры, сериалы, книги и музыка за 2013 и 2014 годы через торрент бесплатно. Скачивайте фильмы в хорошем качестве, игры для пк, xbox, playstation без регистрации. У нас вы найдете новые Зарубежные сериалы и Русские сериалы 2013, 2014, 2015 годов. Оставайтесь с нами, качайте любимые фильмы, игры, сериалы, книги и музыку.
cron