img image001 image001 image001 image001 image001 image001 image001 image001 image001 image001 image001 image001 image001 image001 image001

Planets Sun Sun Sun
Статистика раздачи
Автор: Nickolas3434 | Размер: 3.85 ГБ | Добавлен: 18 фев 2015
Раздают: 97    Качают: 32
Скачать торрент
Скачать торрент
Описание торрента

СообщениеДобавлено: 18 фев 2015 

Информация о фильме
Оригинальное название: Русский транзит
Год выхода: 1994
Жанр: Детектив, боевик, криминал
Режиссер: Виктор Титов
В ролях: Евгений Сидихин, Анна Самохина, Андрей Ургант, Игорь Дмитриев, Владимир Илларионов, Александр Сластин, Юлия Джербинова, Игорь Головин, Анатолий Равикович, Виктор Степанов, Евгений Платохин
О фильме:
Бывший профессиональный спортсмен работает в ресторане "вышибалой". Случай вынуждает героя использовать физические способности в борьбе с новыми хозяевами жизни. События разворачиваются в перестроечную эпоху. В 1981 году партия дала наказ запретить каратэ. Нарушавшие сажались в тюрьмы или оставались на обочине жизни. Такая же участь постигла и героя картины (Сидихин), имевшего четвертый "дан" и преподававшего этот вид спорта. Благодаря все тому же виду спорта, он выжил в Афганистане. Жизнь направила энтузиастов боевых искусств по разным дорожкам, а Сидихин пристроился в бар "Пальмира". Вроде бы все шло терпимо, но вот его вызывают в милицию, обвиняют в вымогательстве, поджоге машины, а затем и в убийстве крупного дельца — торговца антиквариатом. Понимая, что был "подставлен", Сидихин начинает собственное расследование, которое выводит его на поставки наркотиков с Ближнего Востока в Америку через Санкт-Петербург — "Русский Транзит"...

Страна: Россия
Студия: Ленфильм
Продолжительность: 6 х ~ 00:55:00
Перевод: Не требуется
Файл
Формат: AVI
Качество: DVDRip
Видео: XviD, 640x400, ~1500 kbps, 25.000 fps
Аудио: AC3, 48.0 KHz, 2 ch, 192 Kbps
Субтитры: Нет
Семпл

Complete name : E:KinoRusskij.Tranzit.1994.XviD.DVDRip.KPK.GeneralfilmRusskij.Tranzit.1994.(2.seriya.iz.6).XviD.DVDRip.KPK.Generalfilm.avi
Format : AVI
Format/Info : Audio Video Interleave
File size : 662 MiB
Duration : 54mn 23s
Overall bit rate : 1 701 Kbps
Writing application : VirtualDubMod 1.5.10.3 | www.virtualdub-fr.org || (build 2550/release)
Writing library : VirtualDubMod build 2550/release
Video
ID : 0
Format : MPEG-4 Visual
Format profile : Advanced Simple@L5
Format settings, BVOP : 2
Format settings, QPel : No
Format settings, GMC : No warppoints
Format settings, Matrix : Default (H.263)
Codec ID : XVID
Codec ID/Hint : XviD
Duration : 54mn 23s
Bit rate : 1 499 Kbps
Width : 640 pixels
Height : 400 pixels
Display aspect ratio : 16:10
Frame rate : 25.000 fps
Color space : YUV
Chroma subsampling : 4:2:0
Bit depth : 8 bits
Scan type : Progressive
Compression mode : Lossy
Bits/(Pixel*Frame) : 0.234
Stream size : 583 MiB (88%)
Writing library : XviD 1.2.1 (UTC 2008-12-04)
Audio
ID : 1
Format : AC-3
Format/Info : Audio Coding 3
Mode extension : CM (complete main)
Format settings, Endianness : Big
Codec ID : 2000
Duration : 54mn 23s
Bit rate mode : Constant
Bit rate : 192 Kbps
Channel count : 2 channels
Channel positions : Front: L R
Sampling rate : 48.0 KHz
Bit depth : 16 bits
Compression mode : Lossy
Stream size : 74.7 MiB (11%)
Alignment : Split accross interleaves
Interleave, duration : 40 ms (1.00 video frame)
Interleave, preload duration : 500 ms

Релиз от:



   Похожие торренты   Торрент   Размер 
В этой теме нет новых непрочитанных сообщений. Русский транзит [01-06 из 06] (1994) DVDRip от Generalfilm | КПК

20 | 7

1.43 ГБ

В этой теме нет новых непрочитанных сообщений. Русский счет (1994) DVDRip

27 | 10

1.17 ГБ

В этой теме нет новых непрочитанных сообщений. Русский счет (1994) DVDRip

9 | 51

746.48 МБ

В этой теме нет новых непрочитанных сообщений. Транзит / Transit (2012) HDRip | КПК от Generalfilm

1 | 3

284.45 МБ

В этой теме нет новых непрочитанных сообщений. Золотой транзит [01-02 из 02] (2016) HDTVRip от GeneralFilm

117 | 11

744.88 МБ

В этой теме нет новых непрочитанных сообщений. Знают ли русские русский? (2009) DVDRip от Generalfilm

3 | 2

4.11 ГБ

В этой теме нет новых непрочитанных сообщений. Русский мат. Антология для филологов (1994) PDF

33 | 4

966.94 КБ




Вы не можете начинать темы
Вы не можете отвечать на сообщения
Вы не можете редактировать свои сообщения
Вы не можете удалять свои сообщения
Вы не можете добавлять вложения

Перейти:  
Для Мосгорсуда, Роскомнадзора и рекламодателей: mosgorsud-torrent[собачка]yandex.ru
 Вход
ppkBB3cker v.2 © 2008-2014 @ PPK
[ Time : 0.048s | 15 Queries | GZIP : On ]

Торрент трекер RUTOR.IN, Не можете зайти на rutor.org? Какой новый адрес рутор? Какое зеркало рутор? Не работает rutor.org и зеркала? Тогда наш торрент специально для вас. Rutor.in неофициальное зеркало rutor. В случае если у Вас заблокирован rutor или вдруг Вы не можете на него зайти, то Вы без труда сможете скачать бесплатно и без рекламы последние новинки кино, игр, сериалов и прочего у нас, на Rutor.in. Не нужно использовать прокси, чтобы зайти на рутор, достаточно воспользоваться нашим ресурсом. Все новые фильмы, игры, сериалы, книги и музыка за 2013 и 2014 годы через торрент бесплатно. Скачивайте фильмы в хорошем качестве, игры для пк, xbox, playstation без регистрации. У нас вы найдете новые Зарубежные сериалы и Русские сериалы 2013, 2014, 2015 годов. Оставайтесь с нами, качайте любимые фильмы, игры, сериалы, книги и музыку.