img image001 image001 image001 image001 image001 image001 image001 image001 image001 image001 image001 image001 image001 image001 image001

Planets Sun Sun Sun
Статистика раздачи
Автор: Nickolas3434 | Размер: 1.84 ГБ | Добавлен: 18 фев 2015
Раздают: 31    Качают: 6
Скачать торрент
Скачать торрент
Описание торрента

СообщениеДобавлено: 18 фев 2015 

Информация о фильме
Название: Укажите принятое в России название
Оригинальное название: Лапушки
Год выхода: 2009
Жанр: Укажите жанры, разделяя запятыми
Режиссер: Ольга Музалева
В ролях: Ольга Арнтгольц, Татьяна Арнтгольц, Екатерина Федулова, Эдуард Трухменев, Сергей Лавыгин, Петр Красилов, Ольга Сирина, Катрин Краснова, Николай Иванов (III)
О фильме:
Все мужики – сволочи: в этом еще раз убеждаются три симпатичные героини этого комедийного сериала – скромная учительница Катя, ее сестра-близнец Наталья и следователь прокуратуры Рита. Стремясь избавиться от одиночества, девушки обращаются в одно известное брачное агентство. А через несколько дней Катя обнаруживает себя в обнаженном виде на обложке популярного глянцевого журнала. Но она точно знает, что не снималась неглиже! Во всем виноват главный редактор журнала - хитрый и эгоистичный циник. Теперь девушки готовы на все, но не чтобы выйти замуж, а чтобы отомстить… своими, женскими способами.

Страна: Россия
Студия: Студия "АТВ" по заказу ПЦ "Централ Партнершип"
Продолжительность: 8 x ~ 00:52:00
Перевод: Не требуется
Файл
Формат: MP4
Качество: DVDRip | КПК
Видео: MPEG-4 AVC (x264), 640x360, ~500 kbps, 25.000 fps
Аудио: AAC LC, 48.0 KHz, 2 ch, 128 Kbps
Субтитры: Нет
Семпл

Complete name : E:KinoLapushki.(1-8.serij.iz.8).2009.AVC.DVDRip.KPK.GeneralfilmLapushki.(1.seriya.iz.8).2009.AVC.DVDRip.KPK.Generalfilm.mp4
Format : MPEG-4
Format profile : Base Media
Codec ID : isom
File size : 235 MiB
Duration : 52mn 1s
Overall bit rate mode : Variable
Overall bit rate : 632 Kbps
Encoded date : UTC 2015-01-23 17:22:14
Tagged date : UTC 2015-01-23 17:22:14
Video
ID : 1
Format : AVC
Format/Info : Advanced Video Codec
Format profile : High@L4.1
Format settings, CABAC : Yes
Format settings, ReFrames : 8 frames
Codec ID : avc1
Codec ID/Info : Advanced Video Coding
Duration : 52mn 1s
Bit rate : 500 Kbps
Maximum bit rate : 2 177 Kbps
Width : 640 pixels
Height : 360 pixels
Display aspect ratio : 16:9
Frame rate mode : Constant
Frame rate : 25.000 fps
Color space : YUV
Chroma subsampling : 4:2:0
Bit depth : 8 bits
Scan type : Progressive
Bits/(Pixel*Frame) : 0.087
Stream size : 186 MiB (79%)
Writing library : x264 core 130 r2273 b3065e6
Encoding settings : cabac=1 / ref=8 / deblock=1:-1:-1 / analyse=0x3:0x133 / me=umh / subme=10 / psy=1 / psy_rd=1.00:0.00 / mixed_ref=1 / me_range=24 / chroma_me=1 / trellis=2 / 8x8dct=1 / cqm=0 / deadzone=21,11 / fast_pskip=1 / chroma_qp_offset=-2 / threads=3 / lookahead_threads=1 / sliced_threads=0 / nr=0 / decimate=1 / interlaced=0 / bluray_compat=0 / constrained_intra=0 / bframes=8 / b_pyramid=2 / b_adapt=2 / b_bias=0 / direct=3 / weightb=1 / open_gop=0 / weightp=2 / keyint=250 / keyint_min=126 / scenecut=40 / intra_refresh=0 / rc_lookahead=40 / rc=2pass / mbtree=1 / bitrate=500 / ratetol=1.0 / qcomp=0.60 / qpmin=0 / qpmax=69 / qpstep=4 / cplxblur=20.0 / qblur=0.5 / ip_ratio=1.40 / aq=1:1.00
Encoded date : UTC 2015-01-23 17:22:14
Tagged date : UTC 2015-01-23 17:23:01
Audio
ID : 2
Format : AAC
Format/Info : Advanced Audio Codec
Format profile : LC
Codec ID : 40
Duration : 52mn 1s
Bit rate mode : Variable
Bit rate : 128 Kbps
Maximum bit rate : 161 Kbps
Channel count : 2 channels
Channel positions : Front: L R
Sampling rate : 48.0 KHz
Compression mode : Lossy
Delay relative to video : 80ms
Stream size : 47.6 MiB (20%)
Encoded date : UTC 2015-01-23 17:22:51
Tagged date : UTC 2015-01-23 17:23:01

Релиз от:



   Похожие торренты   Торрент   Размер 
В этой теме нет новых непрочитанных сообщений. Лапушки [01-08 из 8] (2009) DVDRip от Files-X

73 | 3

4.7 ГБ

В этой теме нет новых непрочитанных сообщений. Лапушки [1-8 серия из 8] (2009) SATRip

33 | 56

3.91 ГБ

В этой теме нет новых непрочитанных сообщений. Меч [S01] (2009) DVDRip от GeneralFilm

399 | 188

8.68 ГБ

В этой теме нет новых непрочитанных сообщений. Меч [S01] (2009) DVDRip от GeneralFilm

242 | 148

8.7 ГБ

В этой теме нет новых непрочитанных сообщений. Меч [S1] (2009) DVDRip от Generalfilm-Files-X | КПК

286 | 38

4.03 ГБ

В этой теме нет новых непрочитанных сообщений. Лабиринты лжи [01-04 из 4] (2009) DVDRip от Generalfilm

2 | 2

2.06 ГБ

В этой теме нет новых непрочитанных сообщений. Платина 2 [01-12 из 12] (2009) DVDRip - Generalfilm

95 | 91

5.27 ГБ




Вы не можете начинать темы
Вы не можете отвечать на сообщения
Вы не можете редактировать свои сообщения
Вы не можете удалять свои сообщения
Вы не можете добавлять вложения

Перейти:  
Для Мосгорсуда, Роскомнадзора и рекламодателей: mosgorsud-torrent[собачка]yandex.ru
 Вход
ppkBB3cker v.2 © 2008-2014 @ PPK
[ Time : 0.050s | 19 Queries | GZIP : Off ]

Торрент трекер RUTOR.IN, Не можете зайти на rutor.org? Какой новый адрес рутор? Какое зеркало рутор? Не работает rutor.org и зеркала? Тогда наш торрент специально для вас. Rutor.in неофициальное зеркало rutor. В случае если у Вас заблокирован rutor или вдруг Вы не можете на него зайти, то Вы без труда сможете скачать бесплатно и без рекламы последние новинки кино, игр, сериалов и прочего у нас, на Rutor.in. Не нужно использовать прокси, чтобы зайти на рутор, достаточно воспользоваться нашим ресурсом. Все новые фильмы, игры, сериалы, книги и музыка за 2013 и 2014 годы через торрент бесплатно. Скачивайте фильмы в хорошем качестве, игры для пк, xbox, playstation без регистрации. У нас вы найдете новые Зарубежные сериалы и Русские сериалы 2013, 2014, 2015 годов. Оставайтесь с нами, качайте любимые фильмы, игры, сериалы, книги и музыку.
cron