img image001 image001 image001 image001 image001 image001 image001 image001 image001 image001 image001 image001 image001 image001 image001

Planets Sun Sun Sun
Статистика раздачи
Автор: Nickolas3434 | Размер: 2.8 ГБ | Добавлен: 25 фев 2015
Раздают: 53    Качают: 13
Скачать торрент
Скачать торрент
Описание торрента

СообщениеДобавлено: 25 фев 2015 

Женщина-констебль
WPC 56

Страна: Великобритания
Жанр: Криминальная драма
Год выпуска: 2013
Продолжительность: 5 серий по 44 минуты
Перевод: Любительский одноголосый закадровый - ндивИдуалист
Режиссёр: Эндрю Хаттон / Andrew Hutton


В ролях: Дженни Жак - Джина Доусон, Киран Бью - Джек Бёрнс, Чарльз Де’Ат - Сидни Фентон, Джастин Кэйн - Кэти Синклер, Джон Лайт - Роджер Нельсон
Описание: Выпускница полицейской школы Джина Доусон попадает по распределению в полицейский участок Бринфорда. На дворе конец 50-х, и в полиции, как и повсюду в обществе, процветает мужской шовинизм, расизм, коррупция и крутые нравы.
Поначалу бравые офицеры полицейского подразделения отказываются принимать всерьёз юную, хорошенькую, слегка наивную коллегу, поглядывая на неё снисходительно и с долей иронии. Джине придётся вынести немало насмешек и издевательств, не раз доказывать свою профпригодность, отстаивать права задержанных, ввязываясь в нелёгкое противостояние с представителями сильного пола.


Перевод сериала: inessa_muh, tekinka, izolenta, ser3141, Alex_ander, Ihseen, Podruga;
Редактура, озвучивание, аудиомонтаж, постер: ндивИдуалист;


Отрывок | Мои раздачи


Качество видео: HDTVRip
Формат видео: AVI

Видео: XviD 720х400 25fps ~ 1500 kbps
Аудио#1: 44 kHz, МР3, 2/0 (L,R) ch, ~128.00 kbps avg ндивИдуалист
Аудио#2: 44 kHz, МР3, 2/0 (L,R) ch, ~128.00 kbps avg [Оригинал]
Субтитры: Английские (отдельно)




General
Format : AVI
Format/Info : Audio Video Interleave
File size : 558 MiB
Duration : 44mn 3s
Overall bit rate : 1 770 Kbps
Writing application : VirtualDubModRus 1.5.10.2 (build 2542/release)
Writing library : VirtualDubMod build 2542/release
Video
ID : 0
Format : MPEG-4 Visual
Format profile : Advanced Simple@L5
Format settings, BVOP : 2
Format settings, QPel : No
Format settings, GMC : No warppoints
Format settings, Matrix : Default (MPEG)
Codec ID : XVID
Codec ID/Hint : XviD
Duration : 44mn 3s
Bit rate : 1 500 Kbps
Width : 720 pixels
Height : 400 pixels
Display aspect ratio : 16:9
Frame rate : 25.000 fps
Color space : YUV
Chroma subsampling : 4:2:0
Bit depth : 8 bits
Scan type : Progressive
Compression mode : Lossy
Bits/(Pixel*Frame) : 0.208
Stream size : 473 MiB (85%)
Writing library : XviD 1.2.1 (UTC 2008-12-04)
Audio #1
ID : 1
Format : MPEG Audio
Format version : Version 1
Format profile : Layer 3
Mode : Joint stereo
Mode extension : MS Stereo
Codec ID : 55
Codec ID/Hint : MP3
Duration : 43mn 59s
Bit rate mode : Constant
Bit rate : 128 Kbps
Channel(s) : 2 channels
Sampling rate : 48.0 KHz
Compression mode : Lossy
Stream size : 40.3 MiB (7%)
Alignment : Aligned on interleaves
Interleave, duration : 40 ms (1.00 video frame)
Interleave, preload duratio : 504 ms
Audio #2
ID : 2
Format : MPEG Audio
Format version : Version 1
Format profile : Layer 3
Mode : Joint stereo
Mode extension : MS Stereo
Codec ID : 55
Codec ID/Hint : MP3
Duration : 43mn 59s
Bit rate mode : Constant
Bit rate : 128 Kbps
Channel(s) : 2 channels
Sampling rate : 48.0 KHz
Compression mode : Lossy
Stream size : 40.3 MiB (7%)
Alignment : Aligned on interleaves
Interleave, duration : 40 ms (1.00 video frame)
Interleave, preload duratio : 504 ms

Приятного просмотра! = )



   Похожие торренты   Торрент   Размер 
В этой теме нет новых непрочитанных сообщений. Когда зовёт сердце / When Calls the Heart (2013) HDTVRip | ИндивИдуалист

24 | 8

749.31 МБ

В этой теме нет новых непрочитанных сообщений. Когда зовёт сердце / When Calls the Heart (2013) HDTVRip | ИндивИдуалист

48 | 2

1.45 ГБ

В этой теме нет новых непрочитанных сообщений. Констебль / The Constable (2013) HDRip | L2

54 | 1

1.39 ГБ

В этой теме нет новых непрочитанных сообщений. Констебль / The Constable (2013) BDRip 720p | L2

0 | 1

3.5 ГБ

В этой теме нет новых непрочитанных сообщений. Констебль / The Constable / Chung fung jin ging (2013) HDRip от RG Orient Extreme | L2

51 | 9

748.32 МБ

В этой теме нет новых непрочитанных сообщений. Констебль / Chung fung jin ging / The Constable (2013) BDRip 1080p от CINEMANIA | L2

28 | 14

7.79 ГБ

В этой теме нет новых непрочитанных сообщений. Лулу – обнаженная женщина / Lulu femme nue (2013) HDTVRip | Sub

110 | 27

1.35 ГБ




Вы не можете начинать темы
Вы не можете отвечать на сообщения
Вы не можете редактировать свои сообщения
Вы не можете удалять свои сообщения
Вы не можете добавлять вложения

Перейти:  
Для Мосгорсуда, Роскомнадзора и рекламодателей: mosgorsud-torrent[собачка]yandex.ru
 Вход
ppkBB3cker v.2 © 2008-2014 @ PPK
[ Time : 4.192s | 14 Queries | GZIP : On ]

Торрент трекер RUTOR.IN, Не можете зайти на rutor.org? Какой новый адрес рутор? Какое зеркало рутор? Не работает rutor.org и зеркала? Тогда наш торрент специально для вас. Rutor.in неофициальное зеркало rutor. В случае если у Вас заблокирован rutor или вдруг Вы не можете на него зайти, то Вы без труда сможете скачать бесплатно и без рекламы последние новинки кино, игр, сериалов и прочего у нас, на Rutor.in. Не нужно использовать прокси, чтобы зайти на рутор, достаточно воспользоваться нашим ресурсом. Все новые фильмы, игры, сериалы, книги и музыка за 2013 и 2014 годы через торрент бесплатно. Скачивайте фильмы в хорошем качестве, игры для пк, xbox, playstation без регистрации. У нас вы найдете новые Зарубежные сериалы и Русские сериалы 2013, 2014, 2015 годов. Оставайтесь с нами, качайте любимые фильмы, игры, сериалы, книги и музыку.