img image001 image001 image001 image001 image001 image001 image001 image001 image001 image001 image001 image001 image001 image001 image001

Planets Sun Sun Sun
Статистика раздачи
Автор: Nickolas3434 | Размер: 1.15 ГБ | Добавлен: 26 фев 2015
Раздают: 91    Качают: 2
Скачать торрент
Скачать торрент
Описание торрента

СообщениеДобавлено: 26 фев 2015 

Информация о фильме
Название: Курт Сеит и Александра / Курт Сеит и Шура
Оригинальное название: Kurt Seyit ve Sura
Год выхода: 2014
Жанр: драма, мелодрама, военный, история
Режиссер: Хилаль Сарал
В ролях: Кыванч Татлытуг, Фара Зейнеп Абдулла, Berk Erçer, Сердар Гёкхан, Седа Гувен, Sarp Can Köroglu, Биркан Сокуллу, Ushan Çakir, Сергей Тэсслер
О фильме:
Герои переживут крах правящей царской династии и Октябрьскую революцию. На фоне этих исторических событий, полных трагизма, горьких утрат, жестоких разочарований, и развернется история любви между бывшим офицером Царской армии лейтенантом Куртом Сеитом и шестнадцатилетней девушкой из аристократического рода Шурой.
Официальный сайт
Страна: Турция
Студия: Ay Yapim, Star TV
Продолжительность: ~ 01:26:00 серия
Перевод: Професиональный (полное дублирование) [Дубляж выполнен студией "СВ-Дубль" по заказу телеканала "Домашний"]
Файл
Кодек: XviD / MP3
Качество: SATRip
Видео: MPEG4, XviD, 704x400 (16:9), 25.000 fps, 1 699 Kbps (0.241 bit/pixel)
Звук: MPEG Audio, 44.1 KHz, 2 ch, 192 Kbps
General
Complete name : Kurt.Seit.i.Alexandra.(1-2.sezon.1-21.serija.iz.21).2014.XviD.SATRip/Kurt.Seit.i.Alexandra.(1.sezon.1-13.serija.iz.13).2014.XviD.SATRip/Kurt.Seit.i.Alexandra.01.sezon.(001.serija.iz.13).2014.XviD.SATRip.avi
Format : AVI
Format/Info : Audio Video Interleave
File size : 1.15 GiB
Duration : 1h 26mn
Overall bit rate : 1 901 Kbps
Writing library : VirtualDub build 35491/release
Video
ID : 0
Format : MPEG-4 Visual
Format profile : Advanced Simple@L5
Format settings, BVOP : 2
Format settings, QPel : No
Format settings, GMC : No warppoints
Format settings, Matrix : Default (H.263)
Muxing mode : Packed bitstream
Codec ID : XVID
Codec ID/Hint : XviD
Duration : 1h 26mn
Source duration : 42mn 39s
Bit rate : 1 699 Kbps
Width : 704 pixels
Height : 400 pixels
Display aspect ratio : 16:9
Frame rate : 25.000 fps
Color space : YUV
Chroma subsampling : 4:2:0
Bit depth : 8 bits
Scan type : Progressive
Compression mode : Lossy
Bits/(Pixel*Frame) : 0.241
Stream size : 518 MiB (44%)
Writing library : XviD 73
Audio
ID : 1
Format : MPEG Audio
Format version : Version 1
Format profile : Layer 3
Codec ID : 55
Codec ID/Hint : MP3
Duration : 1h 26mn
Source duration : 42mn 39s
Bit rate mode : Constant
Bit rate : 192 Kbps
Channel(s) : 2 channels
Sampling rate : 44.1 KHz
Compression mode : Lossy
Stream size : 58.6 MiB (5%)
Alignment : Split accross interleaves
Interleave, duration : 40 ms (1.00 video frame)
Interleave, preload duration : 500 ms



   Похожие торренты   Торрент   Размер 
В этой теме нет новых непрочитанных сообщений. Курт Сеит и Александра / Kurt Seyit ve Sura [01x01-04] (2014) SATRip | D

60 | 30

5.47 ГБ

В этой теме нет новых непрочитанных сообщений. Курт Сеит и Александра / Kurt Seyit ve Sura [01x01-04] (2014) SATRip | D

38 | 42

8.09 ГБ

В этой теме нет новых непрочитанных сообщений. Курт Сеит и Александра / Kurt Seyit ve Sura [01x01-02] (2014) WEB-DLRip | D

101 | 14

2.42 ГБ

В этой теме нет новых непрочитанных сообщений. Курт Сеит и Александра / Kurt Seyit ve Sura [02x01] (2014) WEB-DLRip | D

7 | 1

985.66 МБ

В этой теме нет новых непрочитанных сообщений. Курт Сеит и Шура / Kurt Seyit ve Sura [01x01-06] (2014) HDTVRip | L

51 | 66

8.48 ГБ

В этой теме нет новых непрочитанных сообщений. Курт Сеит и Шура / Kurt Seyit ve Sura [01x01-11] (2014) HDTVRip | L

139 | 93

14.99 ГБ

В этой теме нет новых непрочитанных сообщений. Курт Сеит и Шура / Kurt Seyit ve Sura [01x01-09] (2014) HDTVRip | L

19 | 6

12.51 ГБ




Вы не можете начинать темы
Вы не можете отвечать на сообщения
Вы не можете редактировать свои сообщения
Вы не можете удалять свои сообщения
Вы не можете добавлять вложения

Перейти:  
Для Мосгорсуда, Роскомнадзора и рекламодателей: mosgorsud-torrent[собачка]yandex.ru
 Вход
ppkBB3cker v.2 © 2008-2014 @ PPK
[ Time : 0.054s | 16 Queries | GZIP : Off ]

Торрент трекер RUTOR.IN, Не можете зайти на rutor.org? Какой новый адрес рутор? Какое зеркало рутор? Не работает rutor.org и зеркала? Тогда наш торрент специально для вас. Rutor.in неофициальное зеркало rutor. В случае если у Вас заблокирован rutor или вдруг Вы не можете на него зайти, то Вы без труда сможете скачать бесплатно и без рекламы последние новинки кино, игр, сериалов и прочего у нас, на Rutor.in. Не нужно использовать прокси, чтобы зайти на рутор, достаточно воспользоваться нашим ресурсом. Все новые фильмы, игры, сериалы, книги и музыка за 2013 и 2014 годы через торрент бесплатно. Скачивайте фильмы в хорошем качестве, игры для пк, xbox, playstation без регистрации. У нас вы найдете новые Зарубежные сериалы и Русские сериалы 2013, 2014, 2015 годов. Оставайтесь с нами, качайте любимые фильмы, игры, сериалы, книги и музыку.
cron