img image001 image001 image001 image001 image001 image001 image001 image001 image001 image001 image001 image001 image001 image001 image001

Planets Sun Sun Sun
Статистика раздачи
Автор: Nickolas3434 | Размер: 805.83 МБ | Добавлен: 11 мар 2015
Раздают: 50    Качают: 4
Скачать торрент
Скачать торрент
Описание торрента

СообщениеДобавлено: 11 мар 2015 

Информация о фильме
Название: Полдарк
Оригинальное название: Poldark
Год выхода: 2015
Жанр: драма
Режиссер: Эдвард Базалгетт, Уильям МакГрегор
В ролях: Эйдан Тёрнер, Элеанор Томлинсон, Хейда Рид, Кайл Соллер, Руби Бенталл, Бети Эдни, Джек Фартинг, Фил Дэвис и Уоррен Кларк и др.
О фильме:
Росс Полдарк возвращается домой с войны, надеясь на спокойную и счастливую жизнь в кругу семьи, и обнаруживает, что отец умер, домом управляют слуги-пьяницы, а невеста Элизабет, уверенная, что он погиб, обручилась с его кузеном.
Официальный сайт
Страна: Великобритания
Студия: Mammoth Screen, BBC One
Продолжительность: ~00:59:00 серия
Перевод: Любительский (многоголосый закадровый) [BaibaKo]
Файл
Кодек: XviD /
Качество: HDTVRip
Видео: MPEG4, XviD, 720x400 (16:9), 25.000 fps, 1 509 Kbps (0.210 bit/pixel)
Звук:
Аудио #1: MP3, 48.0 KHz, 2 ch, 192 Kbps, CBR
Аудио #2: MP3, 48.0 KHz, 2 ch, 192 Kbps, CBR
Семпл
1
General
Complete name : Полдарк (сезон 1) Poldark (2015) HDTVRip - BaibaKo/Poldark.s01e01.HDTVRip.XviD.Rus.Eng.BaibaKo.tv.avi
Format : AVI
Format/Info : Audio Video Interleave
File size : 806 MiB
Duration : 59mn 3s
Overall bit rate : 1 908 Kbps
Writing application : VirtualDubMod 1.5.10.2 (build 2540/release)
Writing library : VirtualDubMod build 2540/release
Video
ID : 0
Format : MPEG-4 Visual
Format profile : Advanced Simple@L5
Format settings, BVOP : 2
Format settings, QPel : No
Format settings, GMC : No warppoints
Format settings, Matrix : Default (H.263)
Codec ID : XVID
Codec ID/Hint : XviD
Duration : 59mn 3s
Bit rate : 1 509 Kbps
Width : 720 pixels
Height : 400 pixels
Display aspect ratio : 16:9
Frame rate : 25.000 fps
Color space : YUV
Chroma subsampling : 4:2:0
Bit depth : 8 bits
Scan type : Progressive
Compression mode : Lossy
Bits/(Pixel*Frame) : 0.210
Stream size : 637 MiB (79%)
Writing library : XviD 1.2.1 (UTC 2008-12-04)
Audio #1
ID : 1
Format : MPEG Audio
Format version : Version 1
Format profile : Layer 3
Mode : Joint stereo
Codec ID : 55
Codec ID/Hint : MP3
Duration : 59mn 3s
Bit rate mode : Constant
Bit rate : 192 Kbps
Channel(s) : 2 channels
Sampling rate : 48.0 KHz
Compression mode : Lossy
Stream size : 81.1 MiB (10%)
Alignment : Aligned on interleaves
Interleave, duration : 40 ms (1.00 video frame)
Interleave, preload duration : 504 ms
Audio #2
ID : 2
Format : MPEG Audio
Format version : Version 1
Format profile : Layer 3
Mode : Joint stereo
Mode extension : MS Stereo
Codec ID : 55
Codec ID/Hint : MP3
Duration : 59mn 3s
Bit rate mode : Constant
Bit rate : 192 Kbps
Channel(s) : 2 channels
Sampling rate : 48.0 KHz
Compression mode : Lossy
Stream size : 81.1 MiB (10%)
Alignment : Aligned on interleaves
Interleave, duration : 40 ms (1.00 video frame)
Interleave, preload duration : 504 ms
Writing library : LAME3.98.4



   Похожие торренты   Торрент   Размер 
В этой теме нет новых непрочитанных сообщений. Полдарк / Poldark [01x01-03] (2015) HDTVRip | BaibaKo

183 | 138

2.43 ГБ

В этой теме нет новых непрочитанных сообщений. Полдарк / Poldark [01x01-04 из 08] (2015) WEB-DLRip | BaibaKo

166 | 195

3.03 ГБ

В этой теме нет новых непрочитанных сообщений. Полдарк / Poldark [01x01-05 из 08] (2015) WEB-DL 1080p | Baibako

12 | 26

11.78 ГБ

В этой теме нет новых непрочитанных сообщений. Полдарк / Poldark [01x01-05 из 08] (2015) WEB-DLRip | BaibaKo

253 | 207

3.79 ГБ

В этой теме нет новых непрочитанных сообщений. Полдарк / Poldark [01x01-02] (2015) WEB-DL 720p | BaibaKo

111 | 51

3.67 ГБ

В этой теме нет новых непрочитанных сообщений. Полдарк / Poldark [01x01-06 из 08] (2015) WEB-DLRip-AVC | Baibako

16 | 106

3.49 ГБ

В этой теме нет новых непрочитанных сообщений. Полдарк / Poldark [S01] (2015) HDTVRip | BaibaKo

447 | 338

6.19 ГБ




Вы не можете начинать темы
Вы не можете отвечать на сообщения
Вы не можете редактировать свои сообщения
Вы не можете удалять свои сообщения
Вы не можете добавлять вложения

Перейти:  
Для Мосгорсуда, Роскомнадзора и рекламодателей: mosgorsud-torrent[собачка]yandex.ru
 Вход
ppkBB3cker v.2 © 2008-2014 @ PPK
[ Time : 0.059s | 15 Queries | GZIP : Off ]

Торрент трекер RUTOR.IN, Не можете зайти на rutor.org? Какой новый адрес рутор? Какое зеркало рутор? Не работает rutor.org и зеркала? Тогда наш торрент специально для вас. Rutor.in неофициальное зеркало rutor. В случае если у Вас заблокирован rutor или вдруг Вы не можете на него зайти, то Вы без труда сможете скачать бесплатно и без рекламы последние новинки кино, игр, сериалов и прочего у нас, на Rutor.in. Не нужно использовать прокси, чтобы зайти на рутор, достаточно воспользоваться нашим ресурсом. Все новые фильмы, игры, сериалы, книги и музыка за 2013 и 2014 годы через торрент бесплатно. Скачивайте фильмы в хорошем качестве, игры для пк, xbox, playstation без регистрации. У нас вы найдете новые Зарубежные сериалы и Русские сериалы 2013, 2014, 2015 годов. Оставайтесь с нами, качайте любимые фильмы, игры, сериалы, книги и музыку.