img image001 image001 image001 image001 image001 image001 image001 image001 image001 image001 image001 image001 image001 image001 image001

Planets Sun Sun Sun
Статистика раздачи
Автор: Nickolas3434 | Размер: 700.7 МБ | Добавлен: 11 мар 2015
Раздают: 43    Качают: 10
Скачать торрент
Скачать торрент
Описание торрента

СообщениеДобавлено: 11 мар 2015 

Год выпуска: 2015
Страна: США
Жанр: драма, криминал
Продолжительность: ~42
Перевод: Профессиональный (многоголосый закадровый) [Gears Media]
Режиссёр: Эндрю Бернштейн, Дэниэл Эттиэс, Колин Бакси
В ролях: Джош Дюамель, Дин Уинтерс, Джанет МакТир, Кэл Пенн, Обри Доллар, Дэймон Херриман, Лиза Лапира, Джесси Фудрей, Мередит Итон, Джули Перл, Артур Ричардсон
Описание:
Два детектива с разными взглядами на мир объединяются, чтобы очистить улицы Батл Крика, используя цинизм, коварство и обман…
Доп. информация:
Студийная озвучка
Качество: HDTVRip
Контейнер: AVI
Видео: 720x400 (16:9), 23,976 fps, 969 kbps
Аудио: Russian, AC3, 48 kHz, 2 ch, 192 kbps
Субтитры: отсутствуют
Семпл
Формат : AVI
Формат/Информация : Audio Video Interleave
Размер файла : 345 Мбайт
Продолжительность : 41 м.
Общий поток : 1171 Кбит/сек
Программа кодирования : VirtualDubMod 1.5.10.2 (build 2540/release)
Библиотека кодирования : VirtualDubMod build 2540/release
Видео
Идентификатор : 0
Формат : MPEG-4 Visual
Профиль формата : Advanced Simple@L5
Параметр BVOP формата : 2
Параметр QPel формата : Да
Параметр GMC формата : 3 точки перехода
Параметр матрицы формата : Default (MPEG)
Режим смешивания : Сжатый битовый поток
Идентификатор кодека : XVID
Идентификатор кодека/Подсказка : XviD
Продолжительность : 41 м.
Битрейт : 969 Кбит/сек
Ширина : 720 пикселей
Высота : 400 пикселей
Соотношение сторон : 16:9
Частота кадров : 23,976 кадра/сек
Цветовое пространство : YUV
Субдискретизация насыщенности : 4:2:0
Битовая глубина : 8 бит
Тип развёртки : Прогрессивная
Метод сжатия : С потерями
Бит/(Пиксели*Кадры) : 0.140
Размер потока : 286 Мбайт (83%)
Библиотека кодирования : XviD 1.2.1 (UTC 2008-12-04)
Аудио
Идентификатор : 1
Формат : AC-3
Формат/Информация : Audio Coding 3
Расширение режима : CM (complete main)
Параметр Endianness формата : Big
Идентификатор кодека : 2000
Продолжительность : 41 м.
Вид битрейта : Постоянный
Битрейт : 192 Кбит/сек
Каналы : 2 канала
Расположение каналов : Front: L R
Частота : 48,0 КГц
Битовая глубина : 16 бит
Метод сжатия : С потерями
Размер потока : 56,6 Мбайт (16%)
Выравнивание : Соединение по промежуткам
Продолжительность промежутка : 42 мс. (1,00 видеокадр)
Время предзагрузки промежутка : 512 мс.



Релиз от: Gears Media



   Похожие торренты   Торрент   Размер 
В этой теме нет новых непрочитанных сообщений. Батл Крик / Battle Creek [01х01 из 13] (2015) HDTVRip | Gears Media

9 | 2

345.39 МБ

В этой теме нет новых непрочитанных сообщений. Батл Крик / Battle Creek [01х01-03 из 13] (2015) HDTVRip | Gears Media

5 | 7

1.03 ГБ

В этой теме нет новых непрочитанных сообщений. Батл Крик / Battle Creek [01х01-06 из 13] (2015) HDTVRip 720p | Gears Media

9 | 19

6.04 ГБ

В этой теме нет новых непрочитанных сообщений. Батл Крик / Battle Creek [01х01-02 из 13] (2015) HDTVRip 720p | Gears Media

40 | 12

1.8 ГБ

В этой теме нет новых непрочитанных сообщений. Батл Крик / Battle Creek [01х01-05 из 13] (2015) HDTVRip 720p | Gears Media

6 | 5

5.1 ГБ

В этой теме нет новых непрочитанных сообщений. Батл Крик / Battle Creek [01х01-07 из 13] (2015) HDTVRip 720p | Gears Media

9 | 5

7.35 ГБ

В этой теме нет новых непрочитанных сообщений. Батл Крик / Battle Creek [01х01-09 из 13] (2015) HDTVRip 720p | Gears Media

20 | 20

10.03 ГБ




Вы не можете начинать темы
Вы не можете отвечать на сообщения
Вы не можете редактировать свои сообщения
Вы не можете удалять свои сообщения
Вы не можете добавлять вложения

Перейти:  
Для Мосгорсуда, Роскомнадзора и рекламодателей: mosgorsud-torrent[собачка]yandex.ru
 Вход
ppkBB3cker v.2 © 2008-2014 @ PPK
[ Time : 0.056s | 18 Queries | GZIP : Off ]

cron