img image001 image001 image001 image001 image001 image001 image001 image001 image001 image001 image001 image001 image001 image001 image001

Planets Sun Sun Sun
Статистика раздачи
Автор: Nickolas3434 | Размер: 3.67 ГБ | Добавлен: 13 мар 2015
Раздают: 93    Качают: 50
Скачать торрент
Скачать торрент
Описание торрента

СообщениеДобавлено: 13 мар 2015 

Информация о фильме
Название: Взгляд в прошлое
Оригинальное название: Hindsight
Год выхода: 2015
Жанр: Драма, комедия, фэнтези
Режиссёр: Майкл Трим, Брэдли Уолш, Джонатан Фрейкс
В ролях: Лаура Рэмси, Сара Голдберг, Крэйг Хорнер, Джон Патрик Амедори, Ник Клиффорд, Джесси Ходжес, Дрю Сидора, Dominick Vicchiullo, Брайан Кервин, Стив Тэлли
О фильме:
Как изменилась бы ваша жизнь, если бы была возможность изменить прошлое? Накануне своей второй свадьбы Бекка часто задаётся этим вопросом и очень скучает по своей подруге Лолли, с которой не виделась уже десять лет. Неожиданно Бекка получает второй шанс - лифт привозит её в 1995 год, в то самое утро, когда она должна выйти замуж в первый раз. Готовы ли вы отправиться в девяностые вместе с ней и посмотреть, изменится ли что-нибудь в её жизни к лучшему?

Производство: США, POP Films, Timberman-Beverly Productions
Продолжительность: 3 х ~ 00:42:00
Перевод: Любительский двухголосый [HamsterStudio]
Оригинальная аудио-дорожка: Нет
Субтитры: Нет
Файл
Качество: WEB-DLRip
Формат: AVI
Видео: XviD, ~ 1900 Кбит/с, 720x400 (16:9), 23.976 кадр/с
Звук: Русский, MP3, 48000 Гц, 128 Кбит/с, 2 канала (Стерео)

Раздача ведётся путём добавления новых серий, при каждом добавлении создаётся новый торрент. Чтобы начать докачку новой серии, пользователям необходимо сделать следующее:
- Остановить скачивание.
- Удалить старый торрент у себя из клиента (старые серии удалять не надо).
- Скачать новый торрент и запустить его у себя в клиенте вместо старого, при этом указать клиенту путь в старую папку куда и должно происходить скачивание новых серий.
Ваш клиент при этом должен произвести хеширование (проверку) старой папки (если не производит сам - помогите ему сделать это), и будет докачивать только те серии которых у вас ещё нет. Старые серии при этом не удаляются, а продолжают раздаваться!
Если вы уже удалили старые серии, то предотвратить повторную закачку старых серий можно, отжав галочку в соответствующих местах при запуске нового торрента. По возможности, желательно не удалять старые серии как можно дольше, чтобы релизер не столько продолжал раздавать старые серии, а смог сконцентрироваться на новых.
General
Complete name : Hindsight.s01e01.WEB-DLRip.avi
Format : AVI
Format/Info : Audio Video Interleave
File size : 623 MiB
Duration : 41mn 46s
Overall bit rate : 2 084 Kbps
Writing application : VirtualDubMod 1.5.10.3 (build 2550/release)
Writing library : VirtualDubMod build 2550/release
Video
ID : 0
Format : MPEG-4 Visual
Format profile : Advanced Simple@L5
Format settings, BVOP : 1
Format settings, QPel : No
Format settings, GMC : No warppoints
Format settings, Matrix : Custom
Codec ID : XVID
Codec ID/Hint : XviD
Duration : 41mn 46s
Bit rate : 1 947 Kbps
Width : 720 pixels
Height : 400 pixels
Display aspect ratio : 16:9
Frame rate : 23.976 fps
Color space : YUV
Chroma subsampling : 4:2:0
Bit depth : 8 bits
Scan type : Progressive
Compression mode : Lossy
Bits/(Pixel*Frame) : 0.282
Stream size : 582 MiB (93%)
Writing library : XviD 73
Audio
ID : 1
Format : MPEG Audio
Format version : Version 1
Format profile : Layer 3
Codec ID : 55
Codec ID/Hint : MP3
Duration : 41mn 46s
Bit rate mode : Constant
Bit rate : 128 Kbps
Channel(s) : 2 channels
Sampling rate : 48.0 KHz
Compression mode : Lossy
Stream size : 38.2 MiB (6%)
Alignment : Aligned on interleaves
Interleave, duration : 42 ms (1.00 video frame)
Interleave, preload duration : 504 ms
Writing library : LAME3.99r
Encoding settings : -m s -V 4 -q 0 -lowpass 17 -b 128




Автор рипа - ivandubskoj



   Похожие торренты   Торрент   Размер 
В этой теме нет новых непрочитанных сообщений. Взгляд в прошлое / Hindsight [01x01] (2015) WEBRip | HamsterStudio

55 | 2

490.6 МБ

В этой теме нет новых непрочитанных сообщений. Взгляд из прошлого / Hindsight / Poo-reun-so-geum (2011) DVDRip

6 | 2

1.37 ГБ

В этой теме нет новых непрочитанных сообщений. Взгляд из прошлого / Hindsight / Poo-reun-so-geum (2011) DVDRip

2 | 1

749.71 МБ

В этой теме нет новых непрочитанных сообщений. Взгляд из прошлого / Hindsight / Poo-reun-so-geum (2011) HDRip

4 | 1

2.05 ГБ

В этой теме нет новых непрочитанных сообщений. ЧОП [01x01 из 20] (2015) WEB-DLRip от ivandubskoj | Обновляемая

57 | 22

1.03 ГБ

В этой теме нет новых непрочитанных сообщений. ЧОП [01x01 из 20] (2015) WEB-DLRip от ivandubskoj | Обновляемая

169 | 2

350.15 МБ

В этой теме нет новых непрочитанных сообщений. ЧОП [01x01 из 20] (2015) WEB-DLRip от ivandubskoj | Обновляемая

190 | 66

700.32 МБ




Вы не можете начинать темы
Вы не можете отвечать на сообщения
Вы не можете редактировать свои сообщения
Вы не можете удалять свои сообщения
Вы не можете добавлять вложения

Перейти:  
Для Мосгорсуда, Роскомнадзора и рекламодателей: mosgorsud-torrent[собачка]yandex.ru
 Вход
ppkBB3cker v.2 © 2008-2014 @ PPK
[ Time : 0.060s | 16 Queries | GZIP : On ]

Торрент трекер RUTOR.IN, Не можете зайти на rutor.org? Какой новый адрес рутор? Какое зеркало рутор? Не работает rutor.org и зеркала? Тогда наш торрент специально для вас. Rutor.in неофициальное зеркало rutor. В случае если у Вас заблокирован rutor или вдруг Вы не можете на него зайти, то Вы без труда сможете скачать бесплатно и без рекламы последние новинки кино, игр, сериалов и прочего у нас, на Rutor.in. Не нужно использовать прокси, чтобы зайти на рутор, достаточно воспользоваться нашим ресурсом. Все новые фильмы, игры, сериалы, книги и музыка за 2013 и 2014 годы через торрент бесплатно. Скачивайте фильмы в хорошем качестве, игры для пк, xbox, playstation без регистрации. У нас вы найдете новые Зарубежные сериалы и Русские сериалы 2013, 2014, 2015 годов. Оставайтесь с нами, качайте любимые фильмы, игры, сериалы, книги и музыку.