img image001 image001 image001 image001 image001 image001 image001 image001 image001 image001 image001 image001 image001 image001 image001

Planets Sun Sun Sun
Статистика раздачи
Автор: Nickolas3434 | Размер: 2.52 ГБ | Добавлен: 19 мар 2015
Раздают: 34    Качают: 9
Скачать торрент
Скачать торрент
Описание торрента

СообщениеДобавлено: 19 мар 2015 

Человек в Высоком замке / The Man in the High Castle / Пилотная серия
Страна: США
Жанр: Фантастика, Триллер, Драма
Год выпуска: 2015
Продолжительность: 00:59:59
Перевод: Одноголосый закадровый Vurlele
Cубтитры: нет
Оригинальная аудиодорожка: английский
Режиссер: Дэвид Семел / David Semel
В ролях: Алекса Давалос, Руперт Эванс, Люк Кляйнтанк, Диджей Кволлс и другие
Описание: Германия и Япония выиграли Вторую мировую. Америка разделена пополам между победителями, но, разумеется, спустя много лет после поражения (действие разворачивается в 1962-м) сознательные американцы организуют глубоко засекреченное подполье. Занимаются повстанцы в основном распространением странной кинохроники, на которой показана победа в войне союзнических войск. Именно с этими пленками в руках в нейтральную зону между двумя Америками отправляются Джо и Джулс — юноша и девушка, пробующие свои силы в борьбе с режимом.
Доп. информация: Первые 15 минут будут слышны минимальные шумы. Прошу прощения за это.

Сэмпл: https://yadi.sk/i/l8p9lmLFfDKUX
Качество видео: WEB-DLRip
Формат видео: MP4
Видео: Advanced Video Coding, 1280*720, 16:9, 25,000 кадров/сек,5744 Кбит/сек
Аудио: Advanced Audio Codec, 48,0 КГц, 256 Кбит/сек, 2 канала
Общее
Полное имя : D:Человек в высоком замке.mp4
Формат : MPEG-4
Профиль формата : Base Media / Version 2
Идентификатор кодека : mp42
Размер файла : 2,52 Гбайт
Продолжительность : 59 м.
Общий поток : 6003 Кбит/сек
Дата кодирования : UTC 2015-03-10 21:24:12
Дата пометки : UTC 2015-03-10 21:24:12
Видео
Идентификатор : 2
Формат : AVC
Формат/Информация : Advanced Video Codec
Профиль формата : Main@L3.2
Параметр CABAC формата : Да
Параметр ReFrames формата : 2 кадра
Идентификатор кодека : avc1
Идентификатор кодека/Информация : Advanced Video Coding
Продолжительность : 59 м.
Битрейт : 5744 Кбит/сек
Ширина : 1280 пикселей
Высота : 720 пикселей
Соотношение сторон : 16:9
Режим частоты кадров : Постоянный
Частота кадров : 25,000 кадров/сек
Стандарт вещания : NTSC
Цветовое пространство : YUV
Субдискретизация насыщенности : 4:2:0
Битовая глубина : 8 бит
Тип развёртки : Прогрессивная
Бит/(Пиксели*Кадры) : 0.249
Размер потока : 2,41 Гбайт (96%)
Язык : English
Дата кодирования : UTC 2015-03-10 21:24:12
Дата пометки : UTC 2015-03-10 21:24:12
colour_range : Limited
Аудио
Идентификатор : 1
Формат : AAC
Формат/Информация : Advanced Audio Codec
Профиль формата : LC
Идентификатор кодека : 40
Продолжительность : 59 м.
Вид битрейта : Постоянный
Битрейт : 256 Кбит/сек
Каналы : channel0
Channel(s)_Original : 2 канала
Расположение каналов : Front: L R
Частота : 48,0 КГц
Метод сжатия : С потерями
Размер потока : 110 Мбайт (4%)
Язык : English
Дата кодирования : UTC 2015-03-10 21:24:12
Дата пометки : UTC 2015-03-10 21:24:12



   Похожие торренты   Торрент   Размер 
В этой теме нет новых непрочитанных сообщений. Человек в высоком замке / The Man in the High Castle [01х01 из 12] (2015) WEBRip | NewStudio

113 | 12

690.78 МБ

В этой теме нет новых непрочитанных сообщений. Человек в высоком замке / The Man in the High Castle [01х01 из 12] (2015) WEBRip | BaibaKo

81 | 11

807.79 МБ

В этой теме нет новых непрочитанных сообщений. Человек в высоком замке / The Man in the High Castle [01х01 из 12] (2015) WEBRip | BaibaKo

59 | 36

2.34 ГБ

В этой теме нет новых непрочитанных сообщений. Человек в высоком замке / The Man in the High Castle [01х01-10 из 10] (2015) WEBRip | BaibaKo

182 | 45

7.28 ГБ

В этой теме нет новых непрочитанных сообщений. Человек в высоком замке / The Man in the High Castle [01х01 из 12] (2015) WEBRip | BaibaKo

139 | 76

1.58 ГБ

В этой теме нет новых непрочитанных сообщений. Человек в высоком замке / The Man in the High Castle [01х01-03 из 12] (2015) WEBRip 720p | NewStudio

54 | 40

4.26 ГБ

В этой теме нет новых непрочитанных сообщений. Человек в высоком замке / The Man in the High Castle [01х01 из 12] (2015) WEBRip 720p | NewStudio

364 | 8

1.73 ГБ




Вы не можете начинать темы
Вы не можете отвечать на сообщения
Вы не можете редактировать свои сообщения
Вы не можете удалять свои сообщения
Вы не можете добавлять вложения

Перейти:  
Для Мосгорсуда, Роскомнадзора и рекламодателей: mosgorsud-torrent[собачка]yandex.ru
 Вход
ppkBB3cker v.2 © 2008-2014 @ PPK
[ Time : 1.348s | 16 Queries | GZIP : Off ]

cron