img image001 image001 image001 image001 image001 image001 image001 image001 image001 image001 image001 image001 image001 image001 image001

Planets Sun Sun Sun
Статистика раздачи
Автор: Nickolas3434 | Размер: 4.01 ГБ | Добавлен: 21 мар 2015
Раздают: 29    Качают: 46
Скачать торрент
Скачать торрент
Описание торрента

СообщениеДобавлено: 21 мар 2015 

Информация о фильме
Название: Восприятие
Оригинальное название: Perception [03x06-12 из 15] (2014-2015) [ Padabajour ]
Год выхода: 2014
Жанр: Криминальный триллер, психологический детектив
Режиссер: Крис Мисиано, Грег Биман, Кеннет Биллер
В ролях: Эрик Маккормак, Рэйчел Ли Кук, Келли Роуэн, Эрджей Смит, Джонатан Скарф, Кристофер Чен, Лиза Бейнс, Джимми Беннетт, Бриджет Риган, ЛеВар Бертон
О фильме:
Доктор Дэниел Пирс — талантливый , но эксцентричный нейробиолог, которого пригласили в ФБР для оказания помощи в расследовании наиболее сложных дел. Доктор Пирс работает в тесном сотрудничестве с Кейт Моретти, бывшей студенткой, которая и завербовала его для работы с Бюро. Также в команде есть Макс Левики — ассистент доктора Пирса и Натали Винсент — его "лучший" друг.
Разгадывать сложнейшие загадки доктору помогают его галлюцинации, ведь Пирс страдает шизофренией и его болезнь бывает крайне полезна в расследовании сложнейших дел.

Страна: США
Продолжительность: 42:00
Перевод: Любительский (многоголосый закадровый) [ Padabajour ]
Файл
Кодек: Xvid
Качество: WEB-DLRip
Видео: Xvid, 720x400, 23.97, 1 976 Kbps 0.171 kbps
Звук: mp3, 48000Hz, 2 ch, 160 kbps ,
Семпл



Format : AVI
Format/Info : Audio Video Interleave
File size : 622 MiB
Duration : 40mn 33s
Overall bit rate : 2 145 Kbps
Writing library : VirtualDub build 32842/release
Video
ID : 0
Format : MPEG-4 Visual
Format profile : Advanced Simple@L5
Format settings, BVOP : Yes
Format settings, QPel : No
Format settings, GMC : No warppoints
Format settings, Matrix : Default (H.263)
Codec ID : XVID
Codec ID/Hint : XviD
Duration : 40mn 33s
Bit rate : 1 976 Kbps
Width : 720 pixels
Height : 400 pixels
Display aspect ratio : 16:9
Frame rate : 23.976 fps
Color space : YUV
Chroma subsampling : 4:2:0
Bit depth : 8 bits
Scan type : Progressive
Compression mode : Lossy
Bits/(Pixel*Frame) : 0.286
Stream size : 573 MiB (92%)
Writing library : XviD 64
Audio
ID : 1
Format : MPEG Audio
Format version : Version 1
Format profile : Layer 3
Mode : Joint stereo
Codec ID : 55
Codec ID/Hint : MP3
Duration : 42mn
Bit rate mode : Constant
Bit rate : 160 Kbps
Channel count : 2 channels
Sampling rate : 48.0 KHz
Compression mode : Lossy
Stream size : 46.4 MiB (7%)
Alignment : Split accross interleaves
Interleave, duration : 42 ms (1.00 video frame)
Interleave, preload duration : 500 ms

Релиз от: [ Padabajour ]



   Похожие торренты   Торрент   Размер 
В этой теме нет новых непрочитанных сообщений. Восприятие / Perception [03x06-10] (2014-2015) WEB-DLRip | L

13 | 5

2.79 ГБ

В этой теме нет новых непрочитанных сообщений. Восприятие / Perception [03x06-11] (2014-2015) WEB-DLRip | L

40 | 47

3.42 ГБ

В этой теме нет новых непрочитанных сообщений. Восприятие / Perception [03x06-13] (2014-2015) WEB-DLRip | L

26 | 77

4.64 ГБ

В этой теме нет новых непрочитанных сообщений. Восприятие / Perception [03x06,07] (2014) WEB-DLRip

29 | 34

927.79 МБ

В этой теме нет новых непрочитанных сообщений. Восприятие / Perception [03x06-11 из 15] (2014-2015) WEBRip 720p | L

14 | 31

7.12 ГБ

В этой теме нет новых непрочитанных сообщений. Восприятие / Perception [03x06-12 из 15] (2014-2015) WEBRip 720p | L

9 | 28

8.34 ГБ

В этой теме нет новых непрочитанных сообщений. Восприятие / Perception [03x06-14 из 15] (2014-2015) WEBRip 720p | L

73 | 252

10.85 ГБ




Вы не можете начинать темы
Вы не можете отвечать на сообщения
Вы не можете редактировать свои сообщения
Вы не можете удалять свои сообщения
Вы не можете добавлять вложения

Перейти:  
Для Мосгорсуда, Роскомнадзора и рекламодателей: mosgorsud-torrent[собачка]yandex.ru
 Вход
ppkBB3cker v.2 © 2008-2014 @ PPK
[ Time : 0.085s | 16 Queries | GZIP : Off ]

Торрент трекер RUTOR.IN, Не можете зайти на rutor.org? Какой новый адрес рутор? Какое зеркало рутор? Не работает rutor.org и зеркала? Тогда наш торрент специально для вас. Rutor.in неофициальное зеркало rutor. В случае если у Вас заблокирован rutor или вдруг Вы не можете на него зайти, то Вы без труда сможете скачать бесплатно и без рекламы последние новинки кино, игр, сериалов и прочего у нас, на Rutor.in. Не нужно использовать прокси, чтобы зайти на рутор, достаточно воспользоваться нашим ресурсом. Все новые фильмы, игры, сериалы, книги и музыка за 2013 и 2014 годы через торрент бесплатно. Скачивайте фильмы в хорошем качестве, игры для пк, xbox, playstation без регистрации. У нас вы найдете новые Зарубежные сериалы и Русские сериалы 2013, 2014, 2015 годов. Оставайтесь с нами, качайте любимые фильмы, игры, сериалы, книги и музыку.