img image001 image001 image001 image001 image001 image001 image001 image001 image001 image001 image001 image001 image001 image001 image001

Planets Sun Sun Sun
Статистика раздачи
Автор: Nickolas3434 | Размер: 2.35 ГБ | Добавлен: 23 мар 2015
Раздают: 247    Качают: 36
Скачать торрент
Скачать торрент
Описание торрента

СообщениеДобавлено: 23 мар 2015 

Информация о фильме
Название: Плата по счетчику
Год выхода: 2014
Жанр: Боевик, детектив, триллер
Режиссёр: Кирилл Капица
В ролях: Алексей Комашко, Анастасия Рубова, Елена Руфанова, Елена Мартыненко, Александр Кудренко, Анатолий Кондюбов, Геша Меньшиков, Александр Большаков, Александр Демич, Владимир Севостьянихин, Александр Устинов, Константин Кайнов, Юрий Елагин, Артур Литвинов, Сергей Шкарбан, Александр Тютрюмов, Самвел Мужикян, Станислав Осколков, Наталья Корольская, Анна Фомина, Игорь Алимджанов, Анита Бумагина, Эрик Кения, Ирина Коваленко, Олег Панин
О фильме:
Простой таксист Павел, у которого после десяти лет совместной жизни с женой начались семейные проблемы, волею случая, встревает в бандитские "разборки". В багажнике его машины оказывается небольшой портфель, набитый бриллиантами. Ему приходится спасать свою жизнь и жизнь дочки, которую похитили бандиты банды Шампура после того, как бриллианты у Павла отобрали полицейские-оборотни. Силы казалось бы неравны, но на помощь Павлу приходят его друзья-таксисты. Развязка вроде как близка, но тут в борьбу вступает третья сила - настоящие владельцы портфеля с камнями.

Производство: Россия, Стар Медиа
Продолжительность: 1 х ~ 00:45:00
Перевод: Не требуется
Язык: Русский
Файл
Кодек: XviD
Качество: HDTVRip
Видео: XviD, ~ 1722 Кбит/с, 720x400 (16:9), 25 кадр/с
Звук: Русский, MP3, 48000 Гц, 128 Кбит/с, 2 канала (Стерео)
Внимание! Раздача ведётся путём добавления новых серий, при каждом добавлении создаётся новый торрент. Чтобы начать докачку новой серии, пользователям необходимо сделать следующее:
- Остановить скачивание.
- Удалить старый торрент у себя из клиента (старые серии удалять не надо).
- Скачать новый торрент и запустить его у себя в клиенте вместо старого, при этом указать клиенту путь в старую папку куда и должно происходить скачивание новых серий.
Ваш клиент при этом должен произвести хеширование (проверку) старой папки (если не производит сам - помогите ему сделать это), и будет докачивать только те серии которых у вас ещё нет. Старые серии при этом не удаляются, а продолжают раздаваться!
Если вы уже удалили старые серии, то предотвратить повторную закачку старых серий можно, отжав галочку в соответствующих местах при запуске нового торрента. По возможности, желательно не удалять старые серии как можно дольше, чтобы релизер не столько продолжал раздавать старые серии, а смог сконцентрироваться на новых.
General
Complete name : Plata.po.schetchiku.e01.2014.HDTVRip.avi
Format : AVI
Format/Info : Audio Video Interleave
File size : 600 MiB
Duration : 45mn 8s
Overall bit rate : 1 860 Kbps
Writing application : VirtualDubMod 1.5.10.3 | www.virtualdub-fr.org || (build 2550/release)
Writing library : VirtualDubMod build 2550/release
Video
ID : 0
Format : MPEG-4 Visual
Format profile : Advanced Simple@L5
Format settings, BVOP : 1
Format settings, QPel : No
Format settings, GMC : No warppoints
Format settings, Matrix : Custom
Codec ID : XVID
Codec ID/Hint : XviD
Duration : 45mn 8s
Bit rate : 1 722 Kbps
Width : 720 pixels
Height : 400 pixels
Display aspect ratio : 16:9
Frame rate : 25.000 fps
Color space : YUV
Chroma subsampling : 4:2:0
Bit depth : 8 bits
Scan type : Progressive
Compression mode : Lossy
Bits/(Pixel*Frame) : 0.239
Stream size : 556 MiB (93%)
Writing library : XviD 73
Audio
ID : 1
Format : MPEG Audio
Format version : Version 1
Format profile : Layer 3
Codec ID : 55
Codec ID/Hint : MP3
Duration : 45mn 8s
Bit rate mode : Constant
Bit rate : 128 Kbps
Channel(s) : 2 channels
Sampling rate : 48.0 KHz
Compression mode : Lossy
Stream size : 41.3 MiB (7%)
Alignment : Aligned on interleaves
Interleave, duration : 40 ms (1.00 video frame)
Interleave, preload duration : 504 ms
Writing library : LAME3.99r
Encoding settings : -m s -V 4 -q 0 -lowpass 17 -b 128



Автор рипа - ivandubskoj



   Похожие торренты   Торрент   Размер 
В этой теме нет новых непрочитанных сообщений. Плата по счетчику [01-04 из 04] (2014) HDTVRip | КПК

136 | 84

814.74 МБ

В этой теме нет новых непрочитанных сообщений. Плата по счетчику [01-02 из 04] (2014) HDTVRip 720p от MediaClub

436 | 48

7.39 ГБ

В этой теме нет новых непрочитанных сообщений. Плата по счетчику [01-04 из 04] (2015) HDTVRip от Files-x

434 | 72

2.15 ГБ

В этой теме нет новых непрочитанных сообщений. Плата по счетчику [01 из 04] (2015) HDTVRip-AVC от Files-x

883 | 224

2.74 ГБ

В этой теме нет новых непрочитанных сообщений. Плата по счетчику [01 из 04] (2015) HDTVRip-AVC от Files-x

56 | 3

708.16 МБ

В этой теме нет новых непрочитанных сообщений. Плата по счетчику [01-04 из 04] (2014) HDTV 1080i

51 | 29

10.62 ГБ

В этой теме нет новых непрочитанных сообщений. Плата по счетчику [01-04 из 04] (2015) WEB-DLRip-AVC от ExKinoRay

280 | 34

2.75 ГБ




Вы не можете начинать темы
Вы не можете отвечать на сообщения
Вы не можете редактировать свои сообщения
Вы не можете удалять свои сообщения
Вы не можете добавлять вложения

Перейти:  
Для Мосгорсуда, Роскомнадзора и рекламодателей: mosgorsud-torrent[собачка]yandex.ru
 Вход
ppkBB3cker v.2 © 2008-2014 @ PPK
[ Time : 0.547s | 15 Queries | GZIP : On ]

Торрент трекер RUTOR.IN, Не можете зайти на rutor.org? Какой новый адрес рутор? Какое зеркало рутор? Не работает rutor.org и зеркала? Тогда наш торрент специально для вас. Rutor.in неофициальное зеркало rutor. В случае если у Вас заблокирован rutor или вдруг Вы не можете на него зайти, то Вы без труда сможете скачать бесплатно и без рекламы последние новинки кино, игр, сериалов и прочего у нас, на Rutor.in. Не нужно использовать прокси, чтобы зайти на рутор, достаточно воспользоваться нашим ресурсом. Все новые фильмы, игры, сериалы, книги и музыка за 2013 и 2014 годы через торрент бесплатно. Скачивайте фильмы в хорошем качестве, игры для пк, xbox, playstation без регистрации. У нас вы найдете новые Зарубежные сериалы и Русские сериалы 2013, 2014, 2015 годов. Оставайтесь с нами, качайте любимые фильмы, игры, сериалы, книги и музыку.