img image001 image001 image001 image001 image001 image001 image001 image001 image001 image001 image001 image001 image001 image001 image001

Planets Sun Sun Sun
Статистика раздачи
Автор: Nickolas3434 | Размер: 4.64 ГБ | Добавлен: 05 апр 2015
Раздают: 170    Качают: 25
Скачать торрент
Скачать торрент
Описание торрента

СообщениеДобавлено: 05 апр 2015 

Оригинальное название: Восьмидесятые
Год выхода: 2011
Жанр: Комедия
Режиссер: Фёдор Стуков
В ролях: Александр Якин, Александр Половцев, Мария Аронова, Александр Новицкий, Дмитрий Белоцерковский, Наталья Земцова, Анна Цуканова, Никита Ефремов, Роман Фомин, Анастасия Балякина, Леонид Громов, Юлия Сулес, Наталья Карпунина, Артур Ваха, Игорь Лагутин, Роман Маякин, Ирина Чипиженко
О фильме: Сериал «Восьмидесятые» - это история про один из самых интересных периодов в жизни нашей страны. Мы как-то обходились без интернета и мобильного телефона. А чтобы передать ключ от квартиры, просто оставляли его под ковриком. Это было странное время, когда нельзя было ничего купить, но достать можно было все. В каждой квартире обязательно стояли югославский гарнитур и шведская стенка, а лучшим подарком были французские духи и электрическая бритва.
Страна: Россия
Студия: "Леан-М"
Продолжительность: 12 x ~ 00:24:30
Язык: Русский
Кодек: MPEG-4 AVC
Качество: SATRip-AVC
Видео: 752x432, ~ 2000 Кбит/с, 25,000 fps
Звук: AC3, 2 ch, 256 Кбит/с
Семпл
General
Unique ID : 251520619779348621103727329654280244946 (0xBD391BFCD06EC2CAA6F1FC8285574ED2)
Complete name : I:Восьмидесятые.S01.2011.x264.SATRip.(AVC)�9.mkv
Format : Matroska
Format version : Version 2
File size : 399 MiB
Duration : 24mn 42s
Overall bit rate : 2 257 Kbps
Encoded date : UTC 2015-04-04 13:27:14
Writing application : mkvmerge v4.0.0 ('The Stars were mine') сборка от Jun 6 2010 16:18:42
Writing library : libebml v1.0.0 + libmatroska v1.0.0
Attachements : cover.jpg
Video
ID : 1
Format : AVC
Format/Info : Advanced Video Codec
Format profile : High@L4.1
Format settings, CABAC : Yes
Format settings, ReFrames : 7 frames
Codec ID : V_MPEG4/ISO/AVC
Duration : 24mn 42s
Bit rate : 2 000 Kbps
Width : 752 pixels
Height : 432 pixels
Display aspect ratio : 16:9
Frame rate mode : Constant
Frame rate : 25.000 fps
Color space : YUV
Chroma subsampling : 4:2:0
Bit depth : 8 bits
Scan type : Progressive
Bits/(Pixel*Frame) : 0.246
Stream size : 346 MiB (87%)
Title : 09
Writing library : x264 core 130 r2273 b3065e6
Encoding settings : cabac=1 / ref=7 / deblock=1:-2:-1 / analyse=0x3:0x133 / me=umh / subme=10 / psy=1 / psy_rd=1.00:0.10 / mixed_ref=1 / me_range=24 / chroma_me=1 / trellis=2 / 8x8dct=1 / cqm=0 / deadzone=21,11 / fast_pskip=0 / chroma_qp_offset=-3 / threads=6 / lookahead_threads=1 / sliced_threads=0 / nr=0 / decimate=1 / interlaced=0 / bluray_compat=0 / constrained_intra=0 / bframes=5 / b_pyramid=2 / b_adapt=2 / b_bias=0 / direct=3 / weightb=1 / open_gop=0 / weightp=2 / keyint=250 / keyint_min=23 / scenecut=40 / intra_refresh=0 / rc_lookahead=50 / rc=2pass / mbtree=1 / bitrate=2000 / ratetol=1.0 / qcomp=0.60 / qpmin=10 / qpmax=51 / qpstep=4 / cplxblur=20.0 / qblur=0.5 / ip_ratio=1.40 / aq=1:1.00
Language : Russian
Default : No
Forced : No
Audio
ID : 2
Format : AC-3
Format/Info : Audio Coding 3
Mode extension : CM (complete main)
Format settings, Endianness : Big
Codec ID : A_AC3
Duration : 24mn 42s
Bit rate mode : Constant
Bit rate : 256 Kbps
Channel(s) : 2 channels
Channel positions : Front: L R
Sampling rate : 48.0 KHz
Bit depth : 16 bits
Compression mode : Lossy
Stream size : 45.2 MiB (11%)
Language : Russian
Default : No
Forced : No



Релиз от: greenst



   Похожие торренты   Торрент   Размер 
В этой теме нет новых непрочитанных сообщений. Восьмидесятые [S01-05] (2011-2015) SATRip [HWP]

81 | 48

19.27 ГБ

В этой теме нет новых непрочитанных сообщений. Восьмидесятые [S01-04] (2011-2014) SATRip

564 | 745

21.26 ГБ

В этой теме нет новых непрочитанных сообщений. Восьмидесятые [01x01-12] (2011) SATRip от КинозалSAT

165 | 53

4.69 ГБ

В этой теме нет новых непрочитанных сообщений. Восьмидесятые [01х01-12] (2011) SATRip-AVC от SilverCinema

40 | 30

1.9 ГБ

В этой теме нет новых непрочитанных сообщений. Восьмидесятые [S01-02] (2011-2013) SATRip от Getty

149 | 75

10.94 ГБ

В этой теме нет новых непрочитанных сообщений. Восьмидесятые [S03] (2013) SATRip

930 | 156

5.92 ГБ

В этой теме нет новых непрочитанных сообщений. Восьмидесятые [S01-03] (2013) SATRip

504 | 351

14.99 ГБ




Вы не можете начинать темы
Вы не можете отвечать на сообщения
Вы не можете редактировать свои сообщения
Вы не можете удалять свои сообщения
Вы не можете добавлять вложения

Перейти:  
Для Мосгорсуда, Роскомнадзора и рекламодателей: mosgorsud-torrent[собачка]yandex.ru
 Вход
ppkBB3cker v.2 © 2008-2014 @ PPK
[ Time : 0.049s | 19 Queries | GZIP : Off ]

Торрент трекер RUTOR.IN, Не можете зайти на rutor.org? Какой новый адрес рутор? Какое зеркало рутор? Не работает rutor.org и зеркала? Тогда наш торрент специально для вас. Rutor.in неофициальное зеркало rutor. В случае если у Вас заблокирован rutor или вдруг Вы не можете на него зайти, то Вы без труда сможете скачать бесплатно и без рекламы последние новинки кино, игр, сериалов и прочего у нас, на Rutor.in. Не нужно использовать прокси, чтобы зайти на рутор, достаточно воспользоваться нашим ресурсом. Все новые фильмы, игры, сериалы, книги и музыка за 2013 и 2014 годы через торрент бесплатно. Скачивайте фильмы в хорошем качестве, игры для пк, xbox, playstation без регистрации. У нас вы найдете новые Зарубежные сериалы и Русские сериалы 2013, 2014, 2015 годов. Оставайтесь с нами, качайте любимые фильмы, игры, сериалы, книги и музыку.
cron