img image001 image001 image001 image001 image001 image001 image001 image001 image001 image001 image001 image001 image001 image001 image001

Planets Sun Sun Sun
Статистика раздачи
Автор: Nickolas3434 | Размер: 11.92 ГБ | Добавлен: 07 апр 2015
Раздают: 12    Качают: 109
Скачать торрент
Скачать торрент
Описание торрента

СообщениеДобавлено: 07 апр 2015 



Название: Сверхъестественное
Оригинальное название: Supernatural
Год выхода: 2014
Жанр: Ужасы, фэнтези, триллер, драма, детектив
Режиссер: Филип Сгриккиа, Джеймс Л. Конуэй, Питер Эллис, Джереми Карвер, Роберт Сингер
В ролях: Джаред Падалеки, Дженсен Эклс, Джим Бивер, Миша Коллинз, Марк Шеппард, Джеффри Дин Морган, Женевьев Падалеки, Синди Сэмпсон, Саманта Феррис, Митч


Дин выбирается из чистилища, но не один. Он отправляется прямиком к Сэму, однако воссоединение семьи проходит не совсем так, как ему представлялось. Сэм бросает все ради того, чтобы быть со своим братом, но расстаться с целой жизнью, что он прожил без Дина, оказывается несколько сложнее, чем он ожидал. Дин и Сэм ищут Кевина, которому удалось сбежать из-под надзора Кроули, но все только усложняется, когда Кевин говорит им, чего хочет Кроули. Как братья Винчестеры в очередной раз собираются спасти планету от бессмертных тварей, увидите в 10 сезоне сериала "Сверхъестественное".


Страна: США
Студия: Kripke Enterprises, Warner Bros. Television, Wonderland Sound and Vision, Supernatural Films
Продолжительность: 17 х ~ 00:43:00
Перевод: Профессиональный многоголосый


Файл
Формат: MKV
Кодек: MPEG-4 AVC
Качество: WEB-DLRip (AVC)
Видео: 1024x576 ~ 2000 Кбит/с
Звук: Русский (АС3, 6 ch, 384 Кбит/c)
Автор рипа:


Общее
Уникальный идентификатор : 64481422502524056244223487339408607715 (0x3082AB9534586E79EA8112D54F8F49E3)
Полное имя : D:ВидеоСверхъестественноеSupernatural.S10E03.mkv
Формат : Matroska
Версия формата : Version 2
Размер файла : 720 Мбайт
Продолжительность : 42 м.
Общий поток : 2365 Кбит/сек
Дата кодирования : UTC 2014-10-24 18:42:11
Программа кодирования : Lavf54.63.104
Библиотека кодирования : Lavf54.63.104
Видео
Идентификатор : 1
Формат : AVC
Формат/Информация : Advanced Video Codec
Профиль формата : Main@L3.1
Параметр CABAC формата : Да
Параметр ReFrames формата : 1 кадр
Идентификатор кодека : V_MPEG4/ISO/AVC
Продолжительность : 42 м.
Битрейт : 2000 Кбит/сек
Ширина : 1024 пикселя
Высота : 576 пикселей
Соотношение сторон : 16:9
Режим частоты кадров : Постоянный
Частота кадров : 23,976 кадра/сек
Цветовое пространство : YUV
Субдискретизация насыщенности : 4:2:0
Битовая глубина : 8 бит
Тип развёртки : Прогрессивная
Бит/(Пиксели*Кадры) : 0.141
Размер потока : 589 Мбайт (82%)
Библиотека кодирования : x264 core 129
Настройки программы : cabac=1 / ref=1 / deblock=1:0:0 / analyse=0x1:0x131 / me=dia / subme=2 / psy=1 / psy_rd=1.00:0.00 / mixed_ref=0 / me_range=16 / chroma_me=1 / trellis=0 / 8x8dct=0 / cqm=0 / deadzone=21,11 / fast_pskip=1 / chroma_qp_offset=0 / threads=4 / lookahead_threads=1 / sliced_threads=0 / nr=0 / decimate=1 / interlaced=0 / bluray_compat=0 / constrained_intra=0 / bframes=0 / weightp=2 / keyint=250 / keyint_min=25 / scenecut=40 / intra_refresh=0 / rc_lookahead=40 / rc=abr / mbtree=1 / bitrate=2000 / ratetol=1.0 / qcomp=0.60 / qpmin=10 / qpmax=51 / qpstep=4 / ip_ratio=1.41 / aq=1:1.00
Default : Да
Forced : Нет
Аудио
Идентификатор : 2
Формат : AC-3
Формат/Информация : Audio Coding 3
Расширение режима : CM (complete main)
Параметр Endianness формата : Big
Идентификатор кодека : A_AC3
Продолжительность : 42 м.
Вид битрейта : Постоянный
Битрейт : 384 Кбит/сек
Каналы : 6 каналов
Расположение каналов : Front: L C R, Side: L R, LFE
Частота : 48,0 КГц
Битовая глубина : 16 бит
Метод сжатия : С потерями
Размер потока : 117 Мбайт (16%)
Default : Да
Forced : Нет








   Похожие торренты   Торрент   Размер 
В этой теме нет новых непрочитанных сообщений. Сверхъестественное / Supernatural [10х01-18 из 23] (2014) WEB-DLRip-AVC | P | Lostfilm

18 | 73

12.63 ГБ

В этой теме нет новых непрочитанных сообщений. Сверхъестественное / Supernatural [10х01-09 из 16] (2014) WEB-DLRip-AVC | P | Lostfilm

104 | 112

6.3 ГБ

В этой теме нет новых непрочитанных сообщений. Сверхъестественное / Supernatural [10х01-20 из 23] (2014) WEB-DLRip-AVC | P | Lostfilm

102 | 419

14.05 ГБ

В этой теме нет новых непрочитанных сообщений. Сверхъестественное / Supernatural [10х01-10 из 23] (2014) WEB-DLRip-AVC | P | Lostfilm

0 | 6

7.01 ГБ

В этой теме нет новых непрочитанных сообщений. Сверхъестественное / Supernatural [10х01-11 из 23] (2014) WEB-DLRip-AVC | P | Lostfilm

150 | 8

7.73 ГБ

В этой теме нет новых непрочитанных сообщений. Сверхъестественное / Supernatural [10х01-19 из 23] (2014) WEB-DLRip-AVC | P | Lostfilm

154 | 93

13.34 ГБ

В этой теме нет новых непрочитанных сообщений. Сверхъестественное / Supernatural [10х01-15 из 23] (2014) WEB-DLRip-AVC | P | Lostfilm

24 | 128

10.52 ГБ




Вы не можете начинать темы
Вы не можете отвечать на сообщения
Вы не можете редактировать свои сообщения
Вы не можете удалять свои сообщения
Вы не можете добавлять вложения

Перейти:  
Для Мосгорсуда, Роскомнадзора и рекламодателей: mosgorsud-torrent[собачка]yandex.ru
 Вход
ppkBB3cker v.2 © 2008-2014 @ PPK
[ Time : 0.030s | 15 Queries | GZIP : On ]

Торрент трекер RUTOR.IN, Не можете зайти на rutor.org? Какой новый адрес рутор? Какое зеркало рутор? Не работает rutor.org и зеркала? Тогда наш торрент специально для вас. Rutor.in неофициальное зеркало rutor. В случае если у Вас заблокирован rutor или вдруг Вы не можете на него зайти, то Вы без труда сможете скачать бесплатно и без рекламы последние новинки кино, игр, сериалов и прочего у нас, на Rutor.in. Не нужно использовать прокси, чтобы зайти на рутор, достаточно воспользоваться нашим ресурсом. Все новые фильмы, игры, сериалы, книги и музыка за 2013 и 2014 годы через торрент бесплатно. Скачивайте фильмы в хорошем качестве, игры для пк, xbox, playstation без регистрации. У нас вы найдете новые Зарубежные сериалы и Русские сериалы 2013, 2014, 2015 годов. Оставайтесь с нами, качайте любимые фильмы, игры, сериалы, книги и музыку.