img image001 image001 image001 image001 image001 image001 image001 image001 image001 image001 image001 image001 image001 image001 image001

Planets Sun Sun Sun
Статистика раздачи
Автор: Nickolas3434 | Размер: 700.32 МБ | Добавлен: 08 апр 2015
Раздают: 190    Качают: 66
Скачать торрент
Скачать торрент
Описание торрента

СообщениеДобавлено: 08 апр 2015 

Информация о фильме
Оригинальное название: ЧОП
Год выхода: 2015
Жанр: Ситком, комедия
Режиссёр: Михаил Соловьев
В ролях: Сергей Стёпин, Олег Масленников-Войтов, Сергей Терещенко, Сэм Никель, Денис Бузин, Яна Кошкина, Дмитрий Белоцерковский, Али Алиев, Ислам Мамергов, Виталий Гумеров
О фильме:
Сериал повествует о жизни бизнес-центра «Соловей», в котором трудится частное охранное предприятие «Кедр». Лев Борисович, начальник ЧОП, является, как он сам считает, не только охранником материальных, но и морально-нравственных ценностей. В его подчинении находятся четыре охранника — Федя, Толя, Слава и новичок Андрей. Андрей мечтает стать рок-звездой, поэтому работой охранника не дорожит, но в первый же рабочий день встречает Снежану, работницу спа-салона, и потихоньку втягивается в будни бизнес-центра.Ограбление спермобанка, взрыв здания, разбитая «Феррари» — это не новый фильм с Джейсоном Стетхемом, а всего лишь история о паре дней из скромной жизни охранников бизнес-центра «Соловей».

Страна: Россия, Гуд Стори Медиа
Продолжительность: 1 х ~ 00:25:00
Перевод: Не требуется
Файл
Кодек: XviD
Качество: WEB-DLRip [Исходник: WEB-DL 720p]
Видео: XviD, 720x400 (16:9), ~ 1798 Кбит/с, 25 кадр/с
Аудио: Русский, MP3, 48000 Гц, 128 Кбит/с, 2 канала (Стерео)

Код:
General
Complete name : CHOP.e01.2015.WEB-DLRip.avi
Format : AVI
Format/Info : Audio Video Interleave
File size : 350 MiB
Duration : 25mn 17s
Overall bit rate : 1 936 Kbps
Writing application : VirtualDubMod 1.5.10.3 | www.virtualdub-fr.org || (build 2550/release)
Writing library : VirtualDubMod build 2550/release
Video
ID : 0
Format : MPEG-4 Visual
Format profile : Advanced Simple@L5
Format settings, BVOP : 1
Format settings, QPel : No
Format settings, GMC : No warppoints
Format settings, Matrix : Custom
Codec ID : XVID
Codec ID/Hint : XviD
Duration : 25mn 17s
Bit rate : 1 798 Kbps
Width : 704 pixels
Height : 400 pixels
Display aspect ratio : 16:9
Frame rate : 25.000 fps
Color space : YUV
Chroma subsampling : 4:2:0
Bit depth : 8 bits
Scan type : Progressive
Compression mode : Lossy
Bits/(Pixel*Frame) : 0.255
Stream size : 325 MiB (93%)
Writing library : XviD 73
Audio
ID : 1
Format : MPEG Audio
Format version : Version 1
Format profile : Layer 3
Codec ID : 55
Codec ID/Hint : MP3
Duration : 25mn 17s
Bit rate mode : Constant
Bit rate : 128 Kbps
Channel(s) : 2 channels
Sampling rate : 48.0 KHz
Compression mode : Lossy
Stream size : 23.2 MiB (7%)
Alignment : Aligned on interleaves
Interleave, duration : 40 ms (1.00 video frame)
Interleave, preload duration : 504 ms
Writing library : LAME3.99r
Encoding settings : -m s -V 4 -q 0 -lowpass 17 -b 128


Внимание! Раздача ведётся путём добавления новых серий, при каждом добавлении создаётся новый торрент. Чтобы начать докачку новой серии, пользователям необходимо сделать следующее:
- Остановить скачивание.
- Удалить старый торрент у себя из клиента (старые серии удалять не надо).
- Скачать новый торрент и запустить его у себя в клиенте вместо старого, при этом указать клиенту путь в старую папку куда и должно происходить скачивание новых серий.
Ваш клиент при этом должен произвести хеширование (проверку) старой папки (если не производит сам - помогите ему сделать это), и будет докачивать только те серии которых у вас ещё нет. Старые серии при этом не удаляются, а продолжают раздаваться!
Если вы уже удалили старые серии, то предотвратить повторную закачку старых серий можно, отжав галочку в соответствующих местах при запуске нового торрента. По возможности, желательно не удалять старые серии как можно дольше, чтобы релизер не столько продолжал раздавать старые серии, а смог сконцентрироваться на новых.

Автор рипа - ivandubskoj



   Похожие торренты   Торрент   Размер 
В этой теме нет новых непрочитанных сообщений. ЧОП [01x01 из 20] (2015) WEB-DLRip от ivandubskoj | Обновляемая

57 | 22

1.03 ГБ

В этой теме нет новых непрочитанных сообщений. ЧОП [01x01 из 20] (2015) WEB-DLRip от ivandubskoj | Обновляемая

169 | 2

350.15 МБ

В этой теме нет новых непрочитанных сообщений. Взгляд в прошлое / Hindsight [01x01-03 из 10] (2015) WEB-DLRip от ivandubskoj | L2

93 | 50

3.67 ГБ

В этой теме нет новых непрочитанных сообщений. Старшеклассники [01x01-06 из 152] (2006) WEB-DLRip от ivandubskoj

2 | 0

4.45 ГБ

В этой теме нет новых непрочитанных сообщений. Плохая соседка (2015) WEB-DLRip от ivandubskoj

2791 | 326

745.81 МБ

В этой теме нет новых непрочитанных сообщений. Некрасивая Любовь (2015) WEB-DLRip от ivandubskoj

233 | 14

746.27 МБ

В этой теме нет новых непрочитанных сообщений. Интерны [13х01-04 из 20] (2015) WEB-DLRip от ivandubskoj

211 | 144

1.71 ГБ




Вы не можете начинать темы
Вы не можете отвечать на сообщения
Вы не можете редактировать свои сообщения
Вы не можете удалять свои сообщения
Вы не можете добавлять вложения

Перейти:  
Для Мосгорсуда, Роскомнадзора и рекламодателей: mosgorsud-torrent[собачка]yandex.ru
 Вход
ppkBB3cker v.2 © 2008-2014 @ PPK
[ Time : 0.049s | 17 Queries | GZIP : Off ]

cron