img image001 image001 image001 image001 image001 image001 image001 image001 image001 image001 image001 image001 image001 image001 image001

Planets Sun Sun Sun
Статистика раздачи
Автор: Nickolas3434 | Размер: 33.6 ГБ | Добавлен: 10 апр 2015
Раздают: 18    Качают: 7
Скачать торрент
Скачать торрент
Описание торрента

СообщениеДобавлено: 10 апр 2015 

Информация о фильме
Название: Под куполом
Оригинальное название: Under the Dome
Год выхода: 2013
Жанр: Фантастика, триллер, драма, детектив
Режиссер: Джек Бендер
В ролях: Майк Фогель, Натали Мартинез, Бриттани Робертсон, Александр Кох, Колин Форд, Николас Стронг, Рашель Лефевр, Дин Норрис, Маккензи Линтц, Бет Бродерик, Аиша Хиндс, Джолин Парди, Леон Риппи, Нед Беллами, Джефф Фэйи, Мэр Уиннингхэм, Саманта Мэтис, Дэйл Рауль
О фильме:
Обычным погожим осенним днем город Честерс Милл, штат Мэн, оказывается внезапно отрезанным от остального мира невидимым барьером. В купол врезается самолет. Загадочное силовое поле не щадит ни постройки, ни автомобили, ни животных, ни людей. Выехавшие в соседний город по делам не могут вернуться к своим близким. Никто не понимает, что это за барьер, откуда он взялся и исчезнет ли. Дейл Барбара, ветеран войны в Ираке, а ныне повар, теперь в одной команде с несколькими отважными жителями — Джулией Шамвей, владелицей городской газеты, помощником врача, женщиной и тремя храбрыми детьми. Против них выступает Большой Джим Ренни — местный политический деятель, который для удержания власти не остановится ни перед чем, даже перед убийством, а также его сын со своим личным «скелетом в шкафу». Но главный их противник — сам Купол…

Страна: США
Студия: Amblin Television, CBS Television Studios
Продолжительность: 13 x ~ 00:42:00
Перевод: Профессиональный многоголосый, профессиональный двухголосый
Кодек: x264
Качество: BDRip 720p
Видео: MPEG-4 AVC, ~ 4700 Кбит/с, 1280x720, 23.976 кадр/с
Звук:
Аудио #1: Русский (AC3, 6 ch, 448 Кбит/с) / Профессиональный многоголосый (Первый канал)
Аудио #2: Русский (AC3, 6 ch, 448 Кбит/с) / Профессиональный многоголосый (LostFilm)
Аудио #3: Русский (AC3, 6 ch, 448 Кбит/с) / Профессиональный многоголосый (AlexFilm)
Аудио #4: Русский (AC3, 6 ch, 448 Кбит/с) / Профессиональный многоголосый (Jaskier)
Аудио #5: Русский (AC3, 6 ch, 448 Кбит/с) / Профессиональный многоголосый (IdeaFilm)
Аудио #6: Русский (AC3, 6 ch, 448 Кбит/с) / Профессиональный многоголосый (Baibako)
Аудио #7: Русский (AC3, 6 ch, 448 Кбит/с) / Профессиональный двухголосый (Кубик в Кубе)
Аудио #8: Украинский (AC3, 2 ch, 192 Кбит/с) / Дублированный (НТН)
Аудио #9: Украинский (AC3, 6 ch, 448 Кбит/с) / Профессиональный многоголосый (UkrDub)
Аудио #10: Английский (AC3, 6 ch, 448 Кбит/с)
Субтитры: Русские (Анастасия Кисиленко - Medveditsa), украинские (UkrDub), английские
Семпл
• Исходник: Under the Dome S01 1080p Blu-ray AVC DTS-HD MA 5.1-CtrlHD
• 6-ти канальные AC3 аудио дорожки были получены из DTS-HD MA 5.1, за которые спасибо markinscor
• За запись украинского дубляжа спасибо людям с гуртома: РОМЕО, woxeloid, BILko
Под куполом (Under the Dome) 1 сезон 2013
01. Пилот
02. Пожар
03. Преследование
04. Вспышка
05. Удар по своим
06. Бесконечная жажда
07. Несовершенные круги
08. Кровь не водица
09. Четвёртая рука
10. Да начнутся игры
11. Помянешь дьявола...
12. Неотложные обстоятельства
13. Занавес
General
Unique ID : 215668024959671602742202848318355947962 (0xA240269659C2D16C9182D2FD4DFC41BA)
Complete name : D:µTorrent загрузкиUnder.The.Dome.BDRip.720p.MediaClubUnder.The.Dome.season-1.(2013)Under.the.Dome.S01E01.2013.BDRip.720p.MediaClub.mkv
Format : Matroska
Format version : Version 4 / Version 2
File size : 2.75 GiB
Duration : 42mn 43s
Overall bit rate : 9 228 Kbps
Movie name : release MediaClub - MINION
Encoded date : UTC 2015-03-28 11:28:27
Writing application : mkvmerge v7.5.0 ('Glass Culture') 64bit built on Jan 4 2015 16:48:44
Writing library : libebml v1.3.1 + libmatroska v1.4.2
DURATION : 00:41:44.479000000
NUMBER_OF_FRAMES : 591
NUMBER_OF_BYTES : 20293
_STATISTICS_WRITING_APP : mkvmerge v7.5.0 ('Glass Culture') 64bit built on Jan 4 2015 16:48:44
_STATISTICS_WRITING_DATE_UTC : 2015-03-28 11:28:27
_STATISTICS_TAGS : BPS DURATION NUMBER_OF_FRAMES NUMBER_OF_BYTES
Video
ID : 1
Format : AVC
Format/Info : Advanced Video Codec
Format profile : High@L4.1
Format settings, CABAC : Yes
Format settings, ReFrames : 8 frames
Codec ID : V_MPEG4/ISO/AVC
Duration : 42mn 43s
Bit rate : 5 000 Kbps
Width : 1 280 pixels
Height : 720 pixels
Display aspect ratio : 16:9
Frame rate mode : Constant
Frame rate : 23.976 fps
Color space : YUV
Chroma subsampling : 4:2:0
Bit depth : 8 bits
Scan type : Progressive
Bits/(Pixel*Frame) : 0.226
Stream size : 1.44 GiB (52%)
Title : Под куполом / 1 сезон / 1 серия - Пилот
Writing library : x264 core 142 r2431 ac76440
Encoding settings : cabac=1 / ref=8 / deblock=1:-3:-3 / analyse=0x3:0x133 / me=esa / subme=11 / psy=1 / psy_rd=1.00:0.10 / mixed_ref=1 / me_range=48 / chroma_me=1 / trellis=2 / 8x8dct=1 / cqm=0 / deadzone=21,11 / fast_pskip=0 / chroma_qp_offset=-3 / threads=6 / lookahead_threads=1 / sliced_threads=0 / nr=0 / decimate=0 / interlaced=0 / bluray_compat=0 / constrained_intra=0 / bframes=10 / b_pyramid=2 / b_adapt=2 / b_bias=0 / direct=3 / weightb=1 / open_gop=0 / weightp=2 / keyint=240 / keyint_min=23 / scenecut=40 / intra_refresh=0 / rc=2pass / mbtree=0 / bitrate=5000 / ratetol=1.0 / qcomp=0.60 / qpmin=10 / qpmax=51 / qpstep=4 / cplxblur=20.0 / qblur=0.5 / ip_ratio=1.40 / pb_ratio=1.30 / aq=1:1.00
Language : English
Default : Yes
Forced : No
DURATION : 00:42:43.394000000
NUMBER_OF_FRAMES : 61460
NUMBER_OF_BYTES : 1601987246
_STATISTICS_WRITING_APP : mkvmerge v7.5.0 ('Glass Culture') 64bit built on Jan 4 2015 16:48:44
_STATISTICS_WRITING_DATE_UTC : 2015-03-28 11:28:27
_STATISTICS_TAGS : BPS DURATION NUMBER_OF_FRAMES NUMBER_OF_BYTES
Audio #1
ID : 2
Format : AC-3
Format/Info : Audio Coding 3
Mode extension : CM (complete main)
Format settings, Endianness : Big
Codec ID : A_AC3
Duration : 42mn 43s
Bit rate mode : Constant
Bit rate : 448 Kbps
Channel(s) : 6 channels
Channel positions : Front: L C R, Side: L R, LFE
Sampling rate : 48.0 KHz
Bit depth : 16 bits
Compression mode : Lossy
Stream size : 137 MiB (5%)
Title : MVO - Первый канал
Language : Russian
Default : Yes
Forced : No
Audio #2
ID : 3
Format : AC-3
Format/Info : Audio Coding 3
Mode extension : CM (complete main)
Format settings, Endianness : Big
Codec ID : A_AC3
Duration : 42mn 43s
Bit rate mode : Constant
Bit rate : 448 Kbps
Channel(s) : 6 channels
Channel positions : Front: L C R, Side: L R, LFE
Sampling rate : 48.0 KHz
Bit depth : 16 bits
Compression mode : Lossy
Stream size : 137 MiB (5%)
Title : MVO - LostFilm
Language : Russian
Default : No
Forced : No
Audio #3
ID : 4
Format : AC-3
Format/Info : Audio Coding 3
Mode extension : CM (complete main)
Format settings, Endianness : Big
Codec ID : A_AC3
Duration : 42mn 43s
Bit rate mode : Constant
Bit rate : 448 Kbps
Channel(s) : 6 channels
Channel positions : Front: L C R, Side: L R, LFE
Sampling rate : 48.0 KHz
Bit depth : 16 bits
Compression mode : Lossy
Stream size : 137 MiB (5%)
Title : MVO - AlexFilm
Language : Russian
Default : No
Forced : No
Audio #4
ID : 5
Format : AC-3
Format/Info : Audio Coding 3
Mode extension : CM (complete main)
Format settings, Endianness : Big
Codec ID : A_AC3
Duration : 42mn 43s
Bit rate mode : Constant
Bit rate : 448 Kbps
Channel(s) : 6 channels
Channel positions : Front: L C R, Side: L R, LFE
Sampling rate : 48.0 KHz
Bit depth : 16 bits
Compression mode : Lossy
Stream size : 137 MiB (5%)
Title : MVO - Jaskier
Language : Russian
Default : No
Forced : No
Audio #5
ID : 6
Format : AC-3
Format/Info : Audio Coding 3
Mode extension : CM (complete main)
Format settings, Endianness : Big
Codec ID : A_AC3
Duration : 42mn 43s
Bit rate mode : Constant
Bit rate : 448 Kbps
Channel(s) : 6 channels
Channel positions : Front: L C R, Side: L R, LFE
Sampling rate : 48.0 KHz
Bit depth : 16 bits
Compression mode : Lossy
Stream size : 137 MiB (5%)
Title : MVO - IdeaFilm
Language : Russian
Default : No
Forced : No
Audio #6
ID : 7
Format : AC-3
Format/Info : Audio Coding 3
Mode extension : CM (complete main)
Format settings, Endianness : Big
Codec ID : A_AC3
Duration : 42mn 43s
Bit rate mode : Constant
Bit rate : 448 Kbps
Channel(s) : 6 channels
Channel positions : Front: L C R, Side: L R, LFE
Sampling rate : 48.0 KHz
Bit depth : 16 bits
Compression mode : Lossy
Stream size : 137 MiB (5%)
Title : MVO - BaibaKo
Language : Russian
Default : No
Forced : No
Audio #7
ID : 8
Format : AC-3
Format/Info : Audio Coding 3
Mode extension : CM (complete main)
Format settings, Endianness : Big
Codec ID : A_AC3
Duration : 42mn 43s
Bit rate mode : Constant
Bit rate : 448 Kbps
Channel(s) : 6 channels
Channel positions : Front: L C R, Side: L R, LFE
Sampling rate : 48.0 KHz
Bit depth : 16 bits
Compression mode : Lossy
Stream size : 137 MiB (5%)
Title : DVO - Кубик в Кубе
Language : Russian
Default : No
Forced : No
Audio #8
ID : 9
Format : AC-3
Format/Info : Audio Coding 3
Mode extension : CM (complete main)
Format settings, Endianness : Big
Codec ID : A_AC3
Duration : 42mn 43s
Bit rate mode : Constant
Bit rate : 192 Kbps
Channel(s) : 2 channels
Channel positions : Front: L R
Sampling rate : 48.0 KHz
Bit depth : 16 bits
Compression mode : Lossy
Stream size : 58.7 MiB (2%)
Title : DUB - НТН
Language : Ukrainian
Default : No
Forced : No
Audio #9
ID : 10
Format : AC-3
Format/Info : Audio Coding 3
Mode extension : CM (complete main)
Format settings, Endianness : Big
Codec ID : A_AC3
Duration : 42mn 43s
Bit rate mode : Constant
Bit rate : 448 Kbps
Channel(s) : 6 channels
Channel positions : Front: L C R, Side: L R, LFE
Sampling rate : 48.0 KHz
Bit depth : 16 bits
Compression mode : Lossy
Stream size : 137 MiB (5%)
Title : MVO - UkrDub
Language : Ukrainian
Default : No
Forced : No
Audio #10
ID : 11
Format : AC-3
Format/Info : Audio Coding 3
Mode extension : CM (complete main)
Format settings, Endianness : Big
Codec ID : A_AC3
Duration : 42mn 43s
Bit rate mode : Constant
Bit rate : 448 Kbps
Channel(s) : 6 channels
Channel positions : Front: L C R, Side: L R, LFE
Sampling rate : 48.0 KHz
Bit depth : 16 bits
Compression mode : Lossy
Stream size : 137 MiB (5%)
Language : English
Default : No
Forced : No
Text #1
ID : 12
Format : UTF-8
Codec ID : S_TEXT/UTF8
Codec ID/Info : UTF-8 Plain Text
Title : Анастасия Кисиленко (Medveditsa)
Language : Russian
Default : No
Forced : No
Text #2
ID : 13
Format : UTF-8
Codec ID : S_TEXT/UTF8
Codec ID/Info : UTF-8 Plain Text
Title : PhilosophUA & ...
Language : Ukrainian
Default : No
Forced : No
Text #3
ID : 14
Format : UTF-8
Codec ID : S_TEXT/UTF8
Codec ID/Info : UTF-8 Plain Text
Title : English
Language : English
Default : No
Forced : No
Menu
00:00:00.000 : en:Chapter 01
00:10:36.719 : en:Chapter 02
00:16:45.796 : en:Chapter 03
00:26:15.614 : en:Chapter 04
00:33:43.688 : en:Chapter 05
00:42:13.947 : en:Chapter 06
00:42:41.934 : en:Chapter 07

Релиз от: |



   Похожие торренты   Торрент   Размер 
В этой теме нет новых непрочитанных сообщений. Под куполом / Under the Dome [S01] (2013) BDRip 720p от MediaClub | Первый канал, LostFilm, AlexFilm, Jaskier, IdeaFilm, Baibako, Кубик в Кубе

61 | 108

26.67 ГБ

В этой теме нет новых непрочитанных сообщений. Под куполом / Under the Dome [S01] (2013) WEB-DL 720p | AlexFilm

25 | 7

18.36 ГБ

В этой теме нет новых непрочитанных сообщений. Под куполом / Under the Dome [01x01-05] (2013) WEB-DL 720p | Sub

0 | 2

5.73 ГБ

В этой теме нет новых непрочитанных сообщений. Под куполом / Under the Dome [01x01-13] (2013) WEB-DL 720p | Sub

4 | 2

14.17 ГБ

В этой теме нет новых непрочитанных сообщений. Под куполом / Under the Dome [S01] (2013-2015) WEB-DL 720p | LostFilm

171 | 228

54.67 ГБ

В этой теме нет новых непрочитанных сообщений. Под куполом / Under the Dome [S01] (2013) WEB-DL 720p | Первый канал

23 | 14

17.63 ГБ

В этой теме нет новых непрочитанных сообщений. Под куполом / Under the Dome [01x01-05 из 13] (2013) WEB-DL 720p | Baibako

0 | 2

7.11 ГБ




Вы не можете начинать темы
Вы не можете отвечать на сообщения
Вы не можете редактировать свои сообщения
Вы не можете удалять свои сообщения
Вы не можете добавлять вложения

Перейти:  
Для Мосгорсуда, Роскомнадзора и рекламодателей: mosgorsud-torrent[собачка]yandex.ru
 Вход
ppkBB3cker v.2 © 2008-2014 @ PPK
[ Time : 0.030s | 16 Queries | GZIP : On ]

Торрент трекер RUTOR.IN, Не можете зайти на rutor.org? Какой новый адрес рутор? Какое зеркало рутор? Не работает rutor.org и зеркала? Тогда наш торрент специально для вас. Rutor.in неофициальное зеркало rutor. В случае если у Вас заблокирован rutor или вдруг Вы не можете на него зайти, то Вы без труда сможете скачать бесплатно и без рекламы последние новинки кино, игр, сериалов и прочего у нас, на Rutor.in. Не нужно использовать прокси, чтобы зайти на рутор, достаточно воспользоваться нашим ресурсом. Все новые фильмы, игры, сериалы, книги и музыка за 2013 и 2014 годы через торрент бесплатно. Скачивайте фильмы в хорошем качестве, игры для пк, xbox, playstation без регистрации. У нас вы найдете новые Зарубежные сериалы и Русские сериалы 2013, 2014, 2015 годов. Оставайтесь с нами, качайте любимые фильмы, игры, сериалы, книги и музыку.