img image001 image001 image001 image001 image001 image001 image001 image001 image001 image001 image001 image001 image001 image001 image001

Planets Sun Sun Sun
Статистика раздачи
Автор: Nickolas3434 | Размер: 14.97 ГБ | Добавлен: 16 апр 2015
Раздают: 385    Качают: 46
Скачать торрент
Скачать торрент
Описание торрента

СообщениеДобавлено: 16 апр 2015 


Информация о фильме
Название: Эврика
Оригинальное название: Eureka
Год выхода: 2008
Жанр: Фантастика, драма, комедия, детектив
Режиссер: Майкл Ланж, Майк Рол, Майкл Гроссман, Брайан Спайсер, Джо Мортон
В ролях: Колин Фергюсон, Салли Ричардсон, Джордан Хинсон, Джо Мортон, Эрика Серра, Эд Куинн, Нейл Грейнстоун, Крис Готье, Дебра Фарентино, Мэтт Фревер
О фильме: Поскольку Вторая Мировая Война закончилась уничтожением Хиросимы и Нагасаки, наука и изобретения стали приоритетными во всем мире. Америка чуть не проиграла гонку с атомными бомбами - это не должно повториться. С помощью Альберта Эйнштейна и других доверенных советников, Президент Гарри С. Труман уполномочил начать заселение удаленной области Тихоокеанского Северо-запада, чтобы сохранить интеллектуальные ценности Америки. Там величайшие умы, вундеркинды, были бы в состоянии жить и работать в благосклонной окружающей среде. Лучшие архитекторы и планировщики были уполномочены построить такое место для этих превосходных гениев, где бы они жили и имели лучшее образование для своих детей, лучшую систему здравоохранения, все для комфортного проживания жизни. Это общество жило бы так же, как все, но с небольшим различием: этот город не обозначен ни на одной карте. О нем никто не знает, кроме Пентагона. Так появился город Эврика. Но в этом маленьком городе все совсем не так, как в других маленьких городах. Большинство "квантовых прыжков" в науке и технике в течение 50 лет было произведено именно элитными исследователями из Эврики. К сожалению, научные исследования всегда непредсказуемы, и годы экспериментов привели к некоторым побочным явлениям. От невостребованной любви до профессиональной ревности, от склонности до депрессии, проблемы горожан Эвреки увеличиваются с каждым днем. Но с уникальными талантами населения и безграничными ресурсами, эти провинциальные проблемы могут стать большими проблемами. Именно там, где человеческая непрочность и супернаука сталкиваются, Эврика начинается...

Страна: США
Студия: NBC Universal Television, Universal Cable Productions
Продолжительность: 77 x ~ 00:43:00
Перевод: Профессиональный (многоголосый, закадровый) [LostFilm]
Файл
Формат: MP4
Качество: WEB-DLRip | КПК
Видео: MPEG-4 AVC (x264), 640x360, ~500 kbps, 23.976 fps
Аудио: AAC LC, 48.0 KHz, 2 ch, 128 Kbps
Субтитры: Нет
Семпл

Complete name : E:KinoEvrika.AVC.WEB-DLRip.KPK.LF.GeneralfilmEvrika.S02.2007.AVC.WEB-DLRip.KPK.LF.GeneralfilmEvrika.s02e02.2007.AVC.WEB-DLRip.KPK.LF.Generalfilm.mp4
Format : MPEG-4
Format profile : Base Media
Codec ID : isom
File size : 197 MiB
Duration : 43mn 37s
Overall bit rate mode : Variable
Overall bit rate : 631 Kbps
Encoded date : UTC 2015-02-19 14:49:32
Tagged date : UTC 2015-02-19 14:49:32
Video
ID : 1
Format : AVC
Format/Info : Advanced Video Codec
Format profile : High@L4.1
Format settings, CABAC : Yes
Format settings, ReFrames : 8 frames
Codec ID : avc1
Codec ID/Info : Advanced Video Coding
Duration : 43mn 36s
Bit rate : 500 Kbps
Maximum bit rate : 3 382 Kbps
Width : 640 pixels
Height : 360 pixels
Display aspect ratio : 16:9
Frame rate mode : Constant
Frame rate : 23.976 fps
Color space : YUV
Chroma subsampling : 4:2:0
Bit depth : 8 bits
Scan type : Progressive
Bits/(Pixel*Frame) : 0.091
Stream size : 156 MiB (79%)
Writing library : x264 core 130 r2273 b3065e6
Encoding settings : cabac=1 / ref=8 / deblock=1:-2:-2 / analyse=0x3:0x133 / me=umh / subme=10 / psy=1 / psy_rd=1.00:0.00 / mixed_ref=1 / me_range=24 / chroma_me=1 / trellis=2 / 8x8dct=1 / cqm=0 / deadzone=21,11 / fast_pskip=1 / chroma_qp_offset=-2 / threads=3 / lookahead_threads=1 / sliced_threads=0 / nr=0 / decimate=0 / interlaced=0 / bluray_compat=0 / constrained_intra=0 / bframes=8 / b_pyramid=2 / b_adapt=2 / b_bias=0 / direct=3 / weightb=1 / open_gop=0 / weightp=2 / keyint=240 / keyint_min=121 / scenecut=40 / intra_refresh=0 / rc_lookahead=40 / rc=2pass / mbtree=1 / bitrate=500 / ratetol=1.0 / qcomp=0.60 / qpmin=0 / qpmax=69 / qpstep=4 / cplxblur=20.0 / qblur=0.5 / ip_ratio=1.40 / aq=1:1.00
Encoded date : UTC 2015-02-19 14:49:32
Tagged date : UTC 2015-02-19 14:50:16
Audio
ID : 2
Format : AAC
Format/Info : Advanced Audio Codec
Format profile : LC
Codec ID : 40
Duration : 43mn 37s
Bit rate mode : Variable
Bit rate : 128 Kbps
Maximum bit rate : 144 Kbps
Channel count : 2 channels
Channel positions : Front: L R
Sampling rate : 48.0 KHz
Compression mode : Lossy
Delay relative to video : 125ms
Stream size : 39.9 MiB (20%)
Encoded date : UTC 2015-02-19 14:50:10
Tagged date : UTC 2015-02-19 14:50:16

Релиз от:



   Похожие торренты   Торрент   Размер 
В этой теме нет новых непрочитанных сообщений. Эврика / Eureka [S01-05] (2006-2012) HDTVRip, TVRip, WEB-DLRip от LostFilm

65 | 94

31.43 ГБ

В этой теме нет новых непрочитанных сообщений. Эврика / Eureka [S01-05] (2006-2012) WEB-DLRip | P

26 | 16

37.9 ГБ

В этой теме нет новых непрочитанных сообщений. Эврика / Eureka [S01] (2006) BDRemux 1080р | LostFilm, СТС

155 | 124

94.07 ГБ

В этой теме нет новых непрочитанных сообщений. Эврика / Eureka [S01-04] (2006-2010) HDTVRip, TVRip, WEBDLRip от LostFilm

2 | 5

24.02 ГБ

В этой теме нет новых непрочитанных сообщений. Эврика / Eureka [S05] (2012) WEB-DL 720p | LostFilm

2 | 1

18.74 ГБ

В этой теме нет новых непрочитанных сообщений. Эврика / Eureka [01x01-12] (2006) WEB-DLRip от СТС

42 | 4

9.34 ГБ

В этой теме нет новых непрочитанных сообщений. Эврика / Eureka [S05] (2012) BDRemux 1080р | LostFilm, Sony Sci-Fi

39 | 26

92.36 ГБ




Вы не можете начинать темы
Вы не можете отвечать на сообщения
Вы не можете редактировать свои сообщения
Вы не можете удалять свои сообщения
Вы не можете добавлять вложения

Перейти:  
Для Мосгорсуда, Роскомнадзора и рекламодателей: mosgorsud-torrent[собачка]yandex.ru
 Вход
ppkBB3cker v.2 © 2008-2014 @ PPK
[ Time : 0.037s | 14 Queries | GZIP : Off ]

Торрент трекер RUTOR.IN, Не можете зайти на rutor.org? Какой новый адрес рутор? Какое зеркало рутор? Не работает rutor.org и зеркала? Тогда наш торрент специально для вас. Rutor.in неофициальное зеркало rutor. В случае если у Вас заблокирован rutor или вдруг Вы не можете на него зайти, то Вы без труда сможете скачать бесплатно и без рекламы последние новинки кино, игр, сериалов и прочего у нас, на Rutor.in. Не нужно использовать прокси, чтобы зайти на рутор, достаточно воспользоваться нашим ресурсом. Все новые фильмы, игры, сериалы, книги и музыка за 2013 и 2014 годы через торрент бесплатно. Скачивайте фильмы в хорошем качестве, игры для пк, xbox, playstation без регистрации. У нас вы найдете новые Зарубежные сериалы и Русские сериалы 2013, 2014, 2015 годов. Оставайтесь с нами, качайте любимые фильмы, игры, сериалы, книги и музыку.