img image001 image001 image001 image001 image001 image001 image001 image001 image001 image001 image001 image001 image001 image001 image001

Planets Sun Sun Sun
Статистика раздачи
Автор: Nickolas3434 | Размер: 2.18 ГБ | Добавлен: 18 апр 2015
Раздают: 498    Качают: 35
Скачать торрент
Скачать торрент
Описание торрента

СообщениеДобавлено: 18 апр 2015 


Страна: Россия / ВГТРК
Жанр: мелодрама, криминал
Год выпуска: 2013
Продолжительность: 00:44:30 / серия
Перевод: Не требуется
Cубтитры: нет
Оригинальная аудиодорожка: русский
Режиссер: Дмитрий Кузьмин
В ролях: Дмитрий Певцов, Никита Панфилов, Ирина Линдт, Сослан Фидаров, Людмила Гаврилова, Валентина Шарыкина, Игорь Воробьев, Михаил Окунев, Илья Трусковский, Евгения Гладий...
Описание: Как известно, сапер ошибается только дважды, и первый раз при выборе профессии. Но сотрудник уникального подразделения московской полиции — Инженерно-Саперного отдела — майор Денис Крамер не представляет своей жизни без любимой работы. У Крамера сложный характер. Он неуступчив, принципиален, и не часто следует инструкциям и предписаниям. Но когда на кону стоят жизни людей, Крамер первым приходит на помощь. Всем известно — он ас своего дела, для которого него практически не существует невыполнимых задач…


Качество: DVDRip / DVD9 R5 - лицензионный диск от "Мистерия Звука"
Формат: AVI
Видео: 720x400 (1.79:1), 25.000 fps, XviD ~ 1552 kbps avg, 0.216 bit/pixel
Аудио: 48 kHz, Dolby AC3, 2 ch, 192 kbps
Дополнительно: Первая серия фильма имеет иное разрешение видео: 704x400 (1.78:1), 25.000 fps, XviD ~ 1552 kbps avg, 0.220 bit/pixel, поскольку кроп исходника был по бокам по 4 пикселя.
Раздача от:
General
Format : AVI
Format/Info : Audio Video Interleave
File size : 558 MiB
Duration : 44mn 30s
Overall bit rate : 1 753 Kbps
Writing application : VirtualDubMod 1.5.10.3 (build 2550/release)
Writing library : VirtualDubMod build 2550/release
Video
ID : 0
Format : MPEG-4 Visual
Format profile : Advanced Simple@L5
Format settings, BVOP : 1
Format settings, QPel : No
Format settings, GMC : No warppoints
Format settings, Matrix : Custom
Codec ID : XVID
Codec ID/Hint : XviD
Duration : 44mn 30s
Bit rate : 1 551 Kbps
Width : 720 pixels
Height : 400 pixels
Display aspect ratio : 16:9
Frame rate : 25.000 fps
Color space : YUV
Chroma subsampling : 4:2:0
Bit depth : 8 bits
Scan type : Progressive
Compression mode : Lossy
Bits/(Pixel*Frame) : 0.215
Stream size : 494 MiB (88%)
Writing library : XviD 73
Audio
ID : 1
Format : AC-3
Format/Info : Audio Coding 3
Format profile : Dolby Digital
Mode extension : CM (complete main)
Format settings, Endianness : Big
Codec ID : 2000
Duration : 44mn 30s
Bit rate mode : Constant
Bit rate : 192 Kbps
Channel(s) : 2 channels
Channel positions : Front: L R
Sampling rate : 48.0 KHz
Bit depth : 16 bits
Compression mode : Lossy
Stream size : 61.1 MiB (11%)
Alignment : Split accross interleaves
Interleave, duration : 40 ms (1.00 video frame)
Interleave, preload duration : 500 ms



Сравниваем с: /torrent/317932/
Видео: http://screenshotcomparison.com/comparison/122423 это сравнение первых серий релизов. Во первых мы теперь знаем, кто автор рипа, это некий Delavar и своё имя он не постеснялся выставить в центр кадра видео (для несведущих переведу с английского языка надпись Rip Delavara, что красуется на видео: Покойся С Миром Delavar). Выдержка из правил трекера Кинозал: "DVD-Rip - наилучшее качество из вышеперечисленных. Картинка не дрожит, цвета не искажены, никаких посторонних надписей". Во вторых, посмотрим, чем он кодирует:
ЦитатаКто-то писал:
Format settings, Matrix : Default (H.263)
Writing library : XviD 1.2.1 (UTC 2008-12-04)
Ну, Бог ему судья, но в третьих, в первой серии с исходника мной было обрезано по бокам 8 пикселей, а Delavar обрезал 12 пикселей, т.е. его ширина 720 пикселей - а это грубый апскейл. И, дополнительно, полезная площадь кадра у меня выше.
Про вторую серию, которая в отличие от первой почему-то кодировалась с 23.976 fps (дальше не проверял), цитата из Mediainfo файла конкурента:
ЦитатаКто-то писал:
Frame rate : 23.976 fps
Т.е. человек кодировал диск PAL 25 кадров в секунду зачем-то в 23.976 кадров. При этом длительность его и моей серий одинаковые: 00:44:31, а количество кадров у меня - 66764, у конкурента - 64029, разница порядка 2700 кадров, это просто выброшенные кадры, это рывки в видео, вот тут приведены 3 пары кадров сравнения подряд, и виден скачек на втором кадре: http://screenshotcomparison.com/comparison/122464 т.е у конкурента между 41191-м кадром и следующим просто выброшен один кадр, что приводит к скачкам при воспроизведении файла и эти скачки при воспроизведении второй серии заметны.
Про звук: у конкурента лишний объём файлов при двухканальном звуке в 448 кбпс. Я уменьшил звук до 192 кбпс, ничуть не ухудшив его качества и увеличив битрейт видео.



   Похожие торренты   Торрент   Размер 
В этой теме нет новых непрочитанных сообщений. Точка взрыва [01-04 из 04] (2013) DVDRip-AVC от New-Team

160 | 15

2.18 ГБ

В этой теме нет новых непрочитанных сообщений. Точка взрыва [01-04 из 04] (2013) DVD9 от New-Team | Лицензия

15 | 8

7.19 ГБ

В этой теме нет новых непрочитанных сообщений. Точка взрыва [01-04 из 04] (2013) DVDRip

2 | 3

1.95 ГБ

В этой теме нет новых непрочитанных сообщений. Точка взрыва [01-04 из 04] (2013) DVB

17 | 2

3.66 ГБ

В этой теме нет новых непрочитанных сообщений. Точка взрыва [01-04 из 04] (2013) HDTVRip

79 | 7

2 ГБ

В этой теме нет новых непрочитанных сообщений. Точка взрыва [01-04 из 04] (2013) SatRip

18 | 3

1.95 ГБ

В этой теме нет новых непрочитанных сообщений. Точка взрыва [01-04 из 04] (2013) SATRip-AVC

9 | 2

2.36 ГБ




Вы не можете начинать темы
Вы не можете отвечать на сообщения
Вы не можете редактировать свои сообщения
Вы не можете удалять свои сообщения
Вы не можете добавлять вложения

Перейти:  
Для Мосгорсуда, Роскомнадзора и рекламодателей: mosgorsud-torrent[собачка]yandex.ru
 Вход
ppkBB3cker v.2 © 2008-2014 @ PPK
[ Time : 0.068s | 16 Queries | GZIP : Off ]

Торрент трекер RUTOR.IN, Не можете зайти на rutor.org? Какой новый адрес рутор? Какое зеркало рутор? Не работает rutor.org и зеркала? Тогда наш торрент специально для вас. Rutor.in неофициальное зеркало rutor. В случае если у Вас заблокирован rutor или вдруг Вы не можете на него зайти, то Вы без труда сможете скачать бесплатно и без рекламы последние новинки кино, игр, сериалов и прочего у нас, на Rutor.in. Не нужно использовать прокси, чтобы зайти на рутор, достаточно воспользоваться нашим ресурсом. Все новые фильмы, игры, сериалы, книги и музыка за 2013 и 2014 годы через торрент бесплатно. Скачивайте фильмы в хорошем качестве, игры для пк, xbox, playstation без регистрации. У нас вы найдете новые Зарубежные сериалы и Русские сериалы 2013, 2014, 2015 годов. Оставайтесь с нами, качайте любимые фильмы, игры, сериалы, книги и музыку.
cron