img image001 image001 image001 image001 image001 image001 image001 image001 image001 image001 image001 image001 image001 image001 image001

Planets Sun Sun Sun
Статистика раздачи
Автор: Nickolas3434 | Размер: 2.18 ГБ | Добавлен: 19 апр 2015
Раздают: 257    Качают: 21
Скачать торрент
Скачать торрент
Описание торрента

СообщениеДобавлено: 19 апр 2015 


Страна: Россия / ВГТРК
Жанр: мелодрама, криминал
Год выпуска: 2013
Продолжительность: 00:44:30 / серия
Перевод: Не требуется
Cубтитры: нет
Оригинальная аудиодорожка: русский
Режиссер: Дмитрий Кузьмин
В ролях: Дмитрий Певцов, Никита Панфилов, Ирина Линдт, Сослан Фидаров, Людмила Гаврилова, Валентина Шарыкина, Игорь Воробьев, Михаил Окунев, Илья Трусковский, Евгения Гладий...
Описание: Как известно, сапер ошибается только дважды, и первый раз при выборе профессии. Но сотрудник уникального подразделения московской полиции — Инженерно-Саперного отдела — майор Денис Крамер не представляет своей жизни без любимой работы. У Крамера сложный характер. Он неуступчив, принципиален, и не часто следует инструкциям и предписаниям. Но когда на кону стоят жизни людей, Крамер первым приходит на помощь. Всем известно — он ас своего дела, для которого него практически не существует невыполнимых задач…


Качество: DVDRip-AVC / DVD9 R5 - лицензионный диск от "Мистерия Звука"
Формат: MKV
Видео: 720x572@1024x572 (1.79:1), 25.000 fps, MPEG-4 AVC ~ 1558 kbps avg, 0.151 bit/pixel
Аудио: 48 kHz, Dolby AC3, 2 ch, 192 kbps
Дополнительно: Первая серия фильма имеет иное разрешение видео: 712x572@1016x572 (1.78:1), 25.000 fps, XviD ~ 1558 kbps avg, 0.154 bit/pixel, поскольку кроп исходника был по бокам по 4 пикселя.
Раздача от:
General
Format : Matroska
Format version : Version 4 / Version 2
File size : 556 MiB
Duration : 44mn 30s
Overall bit rate : 1 746 Kbps
Encoded date : UTC 2015-04-18 05:14:10
Writing application : mkvmerge v7.8.0 ('River Man') 64bit built on Mar 27 2015 16:31:37
Writing library : libebml v1.3.1 + libmatroska v1.4.2
DURATION : 00:44:30.624000000
NUMBER_OF_FRAMES : 83457
NUMBER_OF_BYTES : 64094976
_STATISTICS_WRITING_APP : mkvmerge v7.8.0 ('River Man') 64bit built on Mar 27 2015 16:31:37
_STATISTICS_WRITING_DATE_UTC : 2015-04-18 05:14:10
_STATISTICS_TAGS : BPS DURATION NUMBER_OF_FRAMES NUMBER_OF_BYTES
Video
ID : 1
Format : AVC
Format/Info : Advanced Video Codec
Format profile : High@L4.1
Format settings, CABAC : Yes
Format settings, ReFrames : 8 frames
Codec ID : V_MPEG4/ISO/AVC
Duration : 44mn 30s
Bit rate : 1 552 Kbps
Width : 720 pixels
Height : 572 pixels
Display aspect ratio : 16:9
Frame rate : 25.000 fps
Color space : YUV
Chroma subsampling : 4:2:0
Bit depth : 8 bits
Scan type : Progressive
Bits/(Pixel*Frame) : 0.151
Stream size : 484 MiB (87%)
Writing library : x264 core 130 r2273 b3065e6
Encoding settings : cabac=1 / ref=8 / deblock=1:-2:-1 / analyse=0x3:0x113 / me=umh / subme=10 / psy=1 / psy_rd=1.00:0.05 / mixed_ref=1 / me_range=32 / chroma_me=1 / trellis=2 / 8x8dct=1 / cqm=0 / deadzone=21,11 / fast_pskip=0 / chroma_qp_offset=-3 / threads=9 / lookahead_threads=1 / sliced_threads=0 / nr=0 / decimate=0 / interlaced=0 / bluray_compat=0 / constrained_intra=0 / bframes=8 / b_pyramid=2 / b_adapt=2 / b_bias=0 / direct=3 / weightb=1 / open_gop=0 / weightp=2 / keyint=250 / keyint_min=25 / scenecut=40 / intra_refresh=0 / rc=2pass / mbtree=0 / bitrate=1552 / ratetol=1.0 / qcomp=0.60 / qpmin=0 / qpmax=69 / qpstep=4 / cplxblur=20.0 / qblur=0.5 / ip_ratio=1.40 / pb_ratio=1.30 / aq=1:1.00
Language : Russian
Default : Yes
Forced : No
DURATION : 00:44:30.600000000
NUMBER_OF_FRAMES : 66765
NUMBER_OF_BYTES : 518106707
_STATISTICS_WRITING_APP : mkvmerge v7.8.0 ('River Man') 64bit built on Mar 27 2015 16:31:37
_STATISTICS_WRITING_DATE_UTC : 2015-04-18 05:14:10
_STATISTICS_TAGS : BPS DURATION NUMBER_OF_FRAMES NUMBER_OF_BYTES
Audio
ID : 2
Format : AC-3
Format/Info : Audio Coding 3
Format profile : Dolby Digital
Mode extension : CM (complete main)
Format settings, Endianness : Big
Codec ID : A_AC3
Duration : 44mn 30s
Bit rate mode : Constant
Bit rate : 192 Kbps
Channel(s) : 2 channels
Channel positions : Front: L R
Sampling rate : 48.0 KHz
Bit depth : 16 bits
Compression mode : Lossy
Stream size : 61.1 MiB (11%)
Language : Russian
Default : Yes
Forced : No



Сравниваем вот с этим: /torrent/270213
Автор конкурирующего релиза Серый1779 с Трушки. Размер конкурирующего релиза немного побольше - 2.36 Гб. Сколько было уже трансляций этого сериала, а автор так и не удосужился заменить на что-либо получше. Во первых, в видео конкурента вшитые украинские субтитры, которые раздражают при просмотре хуже любой рекламы и логотипа канала. Хорошо бы было, если бы братья украинцы могли их читать, так эти субтитры ещё и наполовину снизу обрезаны. Во вторых наполнение картинки по бокам существенно меньше, чем у DVD, а сверху наоборот недокроп в 2 пикселя и картинка несколько хуже при большем размере. Вопрос ещё один, почему у файлов не сделано анаморфное разрешение?
Сравнение видео: http://screenshotcomparison.com/comparison/122562
В третьих, аудио с трансляции переведено в формат ААС, при этом либо в самой трансляции звук был хуже, либо при преобразовании это произошло.
Сравнение аудио: http://screenshotcomparison.com/comparison/122560
В четвертых, длина серий у конкурента меньше от 30 секунд до двух минут по сравнению с DVD. Уж что трансляторы из Украины вырезали из видео, я не искал.



   Похожие торренты   Торрент   Размер 
В этой теме нет новых непрочитанных сообщений. Точка взрыва [01-04 из 04] (2013) DVDRip от New-Team

498 | 35

2.18 ГБ

В этой теме нет новых непрочитанных сообщений. Точка взрыва [01-04 из 04] (2013) DVD9 от New-Team | Лицензия

15 | 8

7.19 ГБ

В этой теме нет новых непрочитанных сообщений. Точка взрыва [01-04 из 04] (2013) DVDRip

2 | 3

1.95 ГБ

В этой теме нет новых непрочитанных сообщений. Точка взрыва [01-04 из 04] (2013) DVB

17 | 2

3.66 ГБ

В этой теме нет новых непрочитанных сообщений. Точка взрыва [01-04 из 04] (2013) SATRip-AVC

9 | 2

2.36 ГБ

В этой теме нет новых непрочитанных сообщений. Точка взрыва [01-04 из 04] (2013) SatRip

18 | 3

1.95 ГБ

В этой теме нет новых непрочитанных сообщений. Точка взрыва [01-04 из 04] (2013) HDTVRip

79 | 7

2 ГБ




Вы не можете начинать темы
Вы не можете отвечать на сообщения
Вы не можете редактировать свои сообщения
Вы не можете удалять свои сообщения
Вы не можете добавлять вложения

Перейти:  
Для Мосгорсуда, Роскомнадзора и рекламодателей: mosgorsud-torrent[собачка]yandex.ru
 Вход
ppkBB3cker v.2 © 2008-2014 @ PPK
[ Time : 0.566s | 16 Queries | GZIP : Off ]

Торрент трекер RUTOR.IN, Не можете зайти на rutor.org? Какой новый адрес рутор? Какое зеркало рутор? Не работает rutor.org и зеркала? Тогда наш торрент специально для вас. Rutor.in неофициальное зеркало rutor. В случае если у Вас заблокирован rutor или вдруг Вы не можете на него зайти, то Вы без труда сможете скачать бесплатно и без рекламы последние новинки кино, игр, сериалов и прочего у нас, на Rutor.in. Не нужно использовать прокси, чтобы зайти на рутор, достаточно воспользоваться нашим ресурсом. Все новые фильмы, игры, сериалы, книги и музыка за 2013 и 2014 годы через торрент бесплатно. Скачивайте фильмы в хорошем качестве, игры для пк, xbox, playstation без регистрации. У нас вы найдете новые Зарубежные сериалы и Русские сериалы 2013, 2014, 2015 годов. Оставайтесь с нами, качайте любимые фильмы, игры, сериалы, книги и музыку.
cron