img image001 image001 image001 image001 image001 image001 image001 image001 image001 image001 image001 image001 image001 image001 image001

Planets Sun Sun Sun
Статистика раздачи
Автор: Nickolas3434 | Размер: 2.84 ГБ | Добавлен: 20 апр 2015
Раздают: 27    Качают: 17
Скачать торрент
Скачать торрент
Описание торрента

СообщениеДобавлено: 20 апр 2015 


Информация о фильме
Название: Последний человек на Земле
Оригинальное название: The Last Man on Earth
Год выхода: 2015
Жанр: фантастика, боевик, комедия
Режиссер: Фил Лорд, Кристофер Миллер, Питер Атенсио
В ролях: Уилл Форте, Кристен Шол, Александра Даддарио, Клеопатра Коулман, Дженьюэри Джонс, Мэл Родригез и др.
О фильме:
Фил Миллер когда-то был просто обычным парнем, который любил свою семью и ненавидел свою работу в банке - теперь он последняя надежда человечества. Найдет ли он когда-нибудь другого живого человека на планете?

Страна: США
Продолжительность: ~ 00:22:00 серия
Перевод: Любительский (многоголосый закадровый) | OMSKBIRD records
Файл
Кодек: XviD
Качество: WEB-DLRip
Видео: 720x400 (16:9), 23.976 fps, ~ 1400 kbps
Звук:
Аудио rus: MP3, 48 kHz, 2 ch, 192 kbps | OMSKBIRD records
Аудио eng: MP3, 48 kHz, 2 ch, 192 kbps
Субтитры: отсутствуют
Семпл
Роли озвучивали: Павел Ярощик и Ольга Федорова
Звукорежиссер: Павел Ярощик
Монтаж, работа со звуком : Skyns61
Релиз подготовил: Skyns61
01. Выживший в Тусоне
02. Слон в комнате
03. Шары изюминки и свадебный колокольчик
04. Милая Мелисса
05. Замочить скунса
06. Поганый жирный урод
07. Она сводит меня с ума
08. Переезжаю
09. Всё сначала
Общее
Полное имя : F:FilmsThe.Last.Man.on.Earth.S01.XviDThe.Last.Man.on.Earth.S01E01E02.WEB-DLRip.avi
Формат : AVI
Формат/Информация : Audio Video Interleave
Размер файла : 597 Мбайт
Продолжительность : 45 м.
Общий поток : 1853 Кбит/сек
Программа кодирования : VirtualDubMod 1.5.10.3 (build 2550/release)
Библиотека кодирования : VirtualDubMod build 2550/release
Видео
Идентификатор : 0
Формат : MPEG-4 Visual
Профиль формата : Advanced Simple@L5
Параметр BVOP формата : 1
Параметр QPel формата : Нет
Параметр GMC формата : Без точки перехода
Параметр матрицы формата : Default (H.263)
Идентификатор кодека : XVID
Идентификатор кодека/Подсказка : XviD
Продолжительность : 45 м.
Битрейт : 1454 Кбит/сек
Ширина : 720 пикселей
Высота : 400 пикселей
Соотношение сторон : 16:9
Частота кадров : 23,976 кадра/сек
Цветовое пространство : YUV
Субдискретизация насыщенности : 4:2:0
Битовая глубина : 8 бит
Тип развёртки : Прогрессивная
Метод сжатия : С потерями
Бит/(Пиксели*Кадры) : 0.211
Размер потока : 468 Мбайт (78%)
Библиотека кодирования : XviD 64
Аудио #1
Идентификатор : 1
Формат : MPEG Audio
Версия формата : Version 1
Профиль формата : Layer 3
Режим : Joint stereo
Расширение режима : MS Stereo
Идентификатор кодека : 55
Идентификатор кодека/Подсказка : MP3
Продолжительность : 45 м.
Вид битрейта : Постоянный
Битрейт : 192 Кбит/сек
Каналы : 2 канала
Частота : 48,0 КГц
Метод сжатия : С потерями
Размер потока : 61,8 Мбайт (10%)
Выравнивание : Разделение по промежуткам
Продолжительность промежутка : 42 мс. (1,00 видеокадр)
Время предзагрузки промежутка : 500 мс.
Библиотека кодирования : LAME3.99.4
Аудио #2
Идентификатор : 2
Формат : MPEG Audio
Версия формата : Version 1
Профиль формата : Layer 3
Режим : Joint stereo
Расширение режима : MS Stereo
Идентификатор кодека : 55
Идентификатор кодека/Подсказка : MP3
Продолжительность : 45 м.
Вид битрейта : Постоянный
Битрейт : 192 Кбит/сек
Каналы : 2 канала
Частота : 48,0 КГц
Метод сжатия : С потерями
Размер потока : 61,8 Мбайт (10%)
Выравнивание : Разделение по промежуткам
Продолжительность промежутка : 42 мс. (1,00 видеокадр)
Время предзагрузки промежутка : 500 мс.
Библиотека кодирования : LAME3.99.4

Когда раздача ведётся путём добавления новых серий, при каждом добавлении создётся новый торрент. Чтобы начать докачку новой серии, пользователям необходимо сделать следующее:
(1) остановить скачивание,
(2) удалить старый торрент у себя из клиента (старые серии удалять не надо),
(3) скачать новый торрент и запустить его у себя в клиенте вместо старого, при этом указать клиенту путь в старую папку, куда и должно происходить скачивание новых серий.
Ваш клиент при этом должен произвести хеширование (проверку) старой папки (если не производит сам - помогите ему сделать это), и будет докачивать только те серии, которых у вас ещё нет. Старые серии при этом не удаляются, а продолжают раздаваться!
Eсли вы уже удалили старые серии, то предотвратить повторную закачку старых серий можно, отжав галочку в соответсвующих местах при запуске нового торрента. По возможности, желательно не удалять старые серии как можно дольше, чтобы релизёр не столько продолжал раздавать старые серии, а смог сконцентрироваться на новых.

Релиз от: skyns61



   Похожие торренты   Торрент   Размер 
В этой теме нет новых непрочитанных сообщений. Последний человек на Земле / The Last Man on Earth [01х01-09 из 13] (2015) WEB-DLRip | OMSKBIRD records

14 | 8

2.56 ГБ

В этой теме нет новых непрочитанных сообщений. Последний человек на Земле / The Last Man on Earth [01х01-03 из 13] (2015) WEB-DL 720p | OmskBird

72 | 26

2.29 ГБ

В этой теме нет новых непрочитанных сообщений. Последний человек на Земле / The Last Man on Earth [01x01-09 из 10] (2015) WEB-DLRip | Jaskier

60 | 33

2.28 ГБ

В этой теме нет новых непрочитанных сообщений. Последний человек на Земле / The Last Man on Earth [01x01-02 из 10] (2015) WEB-DLRip | BaibaKo

51 | 5

551.12 МБ

В этой теме нет новых непрочитанных сообщений. Последний человек на Земле / The Last Man on Earth [01x01-05 из 10] (2015) WEB-DLRip | Jaskier

14 | 27

1.24 ГБ

В этой теме нет новых непрочитанных сообщений. Последний человек на Земле / The Last Man on Earth [02х01 из 13] (2015) WEB-DLRip | BaibaKo

423 | 38

294.82 МБ

В этой теме нет новых непрочитанных сообщений. Последний человек на Земле / The Last Man on Earth [S01] (2015) WEB-DLRip | Кубик в кубе

1247 | 475

3.55 ГБ




Вы не можете начинать темы
Вы не можете отвечать на сообщения
Вы не можете редактировать свои сообщения
Вы не можете удалять свои сообщения
Вы не можете добавлять вложения

Перейти:  
Для Мосгорсуда, Роскомнадзора и рекламодателей: mosgorsud-torrent[собачка]yandex.ru
 Вход
ppkBB3cker v.2 © 2008-2014 @ PPK
[ Time : 0.040s | 15 Queries | GZIP : Off ]

Торрент трекер RUTOR.IN, Не можете зайти на rutor.org? Какой новый адрес рутор? Какое зеркало рутор? Не работает rutor.org и зеркала? Тогда наш торрент специально для вас. Rutor.in неофициальное зеркало rutor. В случае если у Вас заблокирован rutor или вдруг Вы не можете на него зайти, то Вы без труда сможете скачать бесплатно и без рекламы последние новинки кино, игр, сериалов и прочего у нас, на Rutor.in. Не нужно использовать прокси, чтобы зайти на рутор, достаточно воспользоваться нашим ресурсом. Все новые фильмы, игры, сериалы, книги и музыка за 2013 и 2014 годы через торрент бесплатно. Скачивайте фильмы в хорошем качестве, игры для пк, xbox, playstation без регистрации. У нас вы найдете новые Зарубежные сериалы и Русские сериалы 2013, 2014, 2015 годов. Оставайтесь с нами, качайте любимые фильмы, игры, сериалы, книги и музыку.