img image001 image001 image001 image001 image001 image001 image001 image001 image001 image001 image001 image001 image001 image001 image001

Planets Sun Sun Sun
Статистика раздачи
Автор: Nickolas3434 | Размер: 985.66 МБ | Добавлен: 22 апр 2015
Раздают: 7    Качают: 1
Скачать торрент
Скачать торрент
Описание торрента

СообщениеДобавлено: 22 апр 2015 


Информация о фильме
Название: Курт Сеит и Александра / Курт Сеит и Шура
Оригинальное название: Kurt Seyit ve Sura
Год выхода: 2014
Жанр: драма, мелодрама, военный, история
Режиссер: Хилаль Сарал
В ролях: Кыванч Татлытуг, Фара Зейнеп Абдулла, Berk Erçer, Сердар Гёкхан, Седа Гувен, Sarp Can Köroglu, Биркан Сокуллу, Ushan Çakir, Сергей Тэсслер
О фильме:
Герои переживут крах правящей царской династии и Октябрьскую революцию. На фоне этих исторических событий, полных трагизма, горьких утрат, жестоких разочарований, и развернется история любви между бывшим офицером Царской армии лейтенантом Куртом Сеитом и шестнадцатилетней девушкой из аристократического рода Шурой.
Официальный сайт
Страна: Турция
Студия: Ay Yapim, Star TV
Продолжительность: ~ 01:30:00 серия
Перевод: Професиональный (полное дублирование) [Дубляж выполнен студией "СВ-Дубль" по заказу телеканала "Домашний"]
Файл
Кодек: XviD / MP3
Качество: WEB-DLRip
Видео: MPEG4, XviD, 720x400 (16:9), 25.000 fps, 1 312 Kbps (0.182 bit/pixel)
Звук: MP3, 44.1 KHz, 2 ch, 128 Kbps, CBR
General
Complete name : Kurt Seyit ve Sura.s01.e14.avi
Format : AVI
Format/Info : Audio Video Interleave
File size : 986 MiB
Duration : 1h 35mn
Overall bit rate : 1 450 Kbps
Writing application : VirtualDubModRus 1.5.10.2 (build 2542/release)
Writing library : VirtualDubMod build 2542/release
TCOD : 0
TCDO : 57029200000
Video
ID : 0
Format : MPEG-4 Visual
Format profile : Advanced Simple@L5
Format settings, BVOP : 2
Format settings, QPel : No
Format settings, GMC : No warppoints
Format settings, Matrix : Default (H.263)
Muxing mode : Packed bitstream
Codec ID : XVID
Codec ID/Hint : XviD
Duration : 1h 35mn
Bit rate : 1 312 Kbps
Width : 720 pixels
Height : 400 pixels
Display aspect ratio : 16:9
Frame rate : 25.000 fps
Color space : YUV
Chroma subsampling : 4:2:0
Bit depth : 8 bits
Scan type : Progressive
Compression mode : Lossy
Bits/(Pixel*Frame) : 0.182
Stream size : 892 MiB (91%)
Writing library : XviD 73
Audio
ID : 1
Format : MPEG Audio
Format version : Version 1
Format profile : Layer 3
Mode : Dual mono
Codec ID : 55
Codec ID/Hint : MP3
Duration : 1h 35mn
Bit rate mode : Constant
Bit rate : 128 Kbps
Channel(s) : 2 channels
Sampling rate : 44.1 KHz
Compression mode : Lossy
Stream size : 87.0 MiB (9%)
Alignment : Split accross interleaves
Interleave, duration : 40 ms (1.00 video frame)
Interleave, preload duration : 500 ms



   Похожие торренты   Торрент   Размер 
В этой теме нет новых непрочитанных сообщений. Курт Сеит и Александра / Kurt Seyit ve Sura [01x01-02] (2014) WEB-DLRip | D

131 | 24

2.42 ГБ

В этой теме нет новых непрочитанных сообщений. Курт Сеит и Александра / Kurt Seyit ve Sura [01x01] (2014) SATRip | D

91 | 2

1.15 ГБ

В этой теме нет новых непрочитанных сообщений. Курт Сеит и Александра / Kurt Seyit ve Sura [01x01-04] (2014) SATRip | D

68 | 34

5.47 ГБ

В этой теме нет новых непрочитанных сообщений. Курт Сеит и Александра / Kurt Seyit ve Sura [01x01-04] (2014) SATRip | D

38 | 42

8.09 ГБ

В этой теме нет новых непрочитанных сообщений. Курт Сеит и Шура / Kurt Seyit ve Sura [S02] (2014) HDTVRip | L1

157 | 57

9.68 ГБ

В этой теме нет новых непрочитанных сообщений. Курт Сеит и Шура / Kurt Seyit ve Sura [01x01-10] (2014) HDTVRip | L

109 | 113

13.8 ГБ

В этой теме нет новых непрочитанных сообщений. Курт Сеит и Шура / Kurt Seyit ve Sura [01x01-08] (2014) HDTVRip | L

123 | 155

11.06 ГБ




Вы не можете начинать темы
Вы не можете отвечать на сообщения
Вы не можете редактировать свои сообщения
Вы не можете удалять свои сообщения
Вы не можете добавлять вложения

Перейти:  
Для Мосгорсуда, Роскомнадзора и рекламодателей: mosgorsud-torrent[собачка]yandex.ru
 Вход
ppkBB3cker v.2 © 2008-2014 @ PPK
[ Time : 0.036s | 15 Queries | GZIP : Off ]

Торрент трекер RUTOR.IN, Не можете зайти на rutor.org? Какой новый адрес рутор? Какое зеркало рутор? Не работает rutor.org и зеркала? Тогда наш торрент специально для вас. Rutor.in неофициальное зеркало rutor. В случае если у Вас заблокирован rutor или вдруг Вы не можете на него зайти, то Вы без труда сможете скачать бесплатно и без рекламы последние новинки кино, игр, сериалов и прочего у нас, на Rutor.in. Не нужно использовать прокси, чтобы зайти на рутор, достаточно воспользоваться нашим ресурсом. Все новые фильмы, игры, сериалы, книги и музыка за 2013 и 2014 годы через торрент бесплатно. Скачивайте фильмы в хорошем качестве, игры для пк, xbox, playstation без регистрации. У нас вы найдете новые Зарубежные сериалы и Русские сериалы 2013, 2014, 2015 годов. Оставайтесь с нами, качайте любимые фильмы, игры, сериалы, книги и музыку.