img image001 image001 image001 image001 image001 image001 image001 image001 image001 image001 image001 image001 image001 image001 image001

Planets Sun Sun Sun
Статистика раздачи
Автор: Nickolas3434 | Размер: 12.16 ГБ | Добавлен: 23 апр 2015
Раздают: 79    Качают: 58
Скачать торрент
Скачать торрент
Описание торрента

СообщениеДобавлено: 23 апр 2015 


Информация о фильме
Название: Вечность
Оригинальное название: Forever
Год выхода: 2014
Жанр: Фантастика, драма
Режиссер: Мэтью Миллер
В ролях: Йоан Гриффит, Лоррейн Туссен, Алана Де Ла Гарза, Донни Кешаварц, Джоэль Мур, Джадд Хёрш, Микаелла Эшли, Джудит Лайтфут Кларк, Джессика ДиДжиованни, Джулиан Гэмбл
О фильме:
У доктора Генри Моргана, судебно-медицинского эксперта Нью-Йорка, есть секрет. Он изучает мертвых не только, чтобы раскрывать уголовные дела. Он это делает, чтобы раскрыть тайну, которая ускользала от него на протяжении 200 лет — причину своего бессмертия…

01. Пилот (Pilot)
02. Семь раз отмерь... (Look Before You Leap)
03. Источник вечной молодости (Fountain of Youth)
04. Искусство убийства (The Art of Murder)
05. Боксёрский перелом (The Pugilist Break)
06. С психопатами сложно (The Frustrating Thing About Psychopaths)
07. Баловни Нью-Йорка (New York Kids)
08. В экстазе агонии (The Ecstasy of Agony)
09. Шесть утра (6 A.M.)
10. Человек в дорогом костюме (The Man in the Killer Suit)
11. Голый купальщик (Skinny Dipper)
12. Волки дремучего Бруклина (The Wolves of Deep Brooklyn)
13. Бриллианты навсегда (Diamonds Are Forever)
14. Гитлер в разрезе (Hitler on the Half-Shell)
15. Король с площади Колумба (The King of Columbus Circle)
16. Воспоминания об убийстве (Memories of Murder)
17. Социальная инженерия (Social Engineering)
18. У мертвецов длинные языки (Dead Men Tell Long Tales)
19. Панк-рок мёртв (Punk Is Dead)
20. Из кожи вон (Best Foot Forward)

Страна: США
Студия: Lin Pictures, Warner Bros. Television
Продолжительность: 20 x ~ 00:43:00
Перевод: Профессиональный (многоголосый, закадровый) [LostFilm]
Файл
Формат: AVI
Качество: WEB-DLRip
Видео: XviD, 720x400, ~1800 kbps, 23.976 fps
Аудио: AC3, 48.0 KHz, 2 ch, 192 Kbps
Субтитры: Нет
Семпл

Complete name : E:KinoVechnost'.XviD.WEB-DLRip.LF.GeneralfilmVechnost'.S01.2014-2015.XviD.WEB-DLRip.LF.GeneralfilmVechnost'.s01e20.2015.XviD.WEB-DLRip.LF.Generalfilm.avi
Format : AVI
Format/Info : Audio Video Interleave
File size : 623 MiB
Duration : 43mn 11s
Overall bit rate : 2 018 Kbps
Writing application : VirtualDubMod 1.5.10.3 | www.virtualdub-fr.org || (build 2550/release)
Writing library : VirtualDubMod build 2550/release
Video
ID : 0
Format : MPEG-4 Visual
Format profile : Advanced Simple@L5
Format settings, BVOP : 3
Format settings, QPel : Yes
Format settings, GMC : 3 warppoints
Format settings, Matrix : Default (H.263)
Codec ID : XVID
Codec ID/Hint : XviD
Duration : 43mn 11s
Bit rate : 1 816 Kbps
Width : 720 pixels
Height : 400 pixels
Display aspect ratio : 16:9
Frame rate : 23.976 fps
Color space : YUV
Chroma subsampling : 4:2:0
Bit depth : 8 bits
Scan type : Progressive
Compression mode : Lossy
Bits/(Pixel*Frame) : 0.263
Stream size : 561 MiB (90%)
Writing library : XviD 1.2.1 (UTC 2008-12-04)
Audio
ID : 1
Format : AC-3
Format/Info : Audio Coding 3
Mode extension : CM (complete main)
Format settings, Endianness : Big
Codec ID : 2000
Duration : 43mn 11s
Bit rate mode : Constant
Bit rate : 192 Kbps
Channel count : 2 channels
Channel positions : Front: L R
Sampling rate : 48.0 KHz
Bit depth : 16 bits
Compression mode : Lossy
Stream size : 59.3 MiB (10%)
Alignment : Split accross interleaves
Interleave, duration : 42 ms (1.00 video frame)
Interleave, preload duration : 500 ms

Релиз от:



   Похожие торренты   Торрент   Размер 
В этой теме нет новых непрочитанных сообщений. Вечность / Forever [01x01-20 из 22] (2014-2015) WEB-DLRip от Generalfilm | КПК | LostFilm

23 | 62

3.8 ГБ

В этой теме нет новых непрочитанных сообщений. Вечность / Forever [01x01-04 из 13] (2014) WEB-DLRip | LostFilm

74 | 7

598.17 МБ

В этой теме нет новых непрочитанных сообщений. Вечность / Forever [01x01-13 из 22] (2014) WEB-DLRip | LostFilm

267 | 337

6.37 ГБ

В этой теме нет новых непрочитанных сообщений. Вечность / Forever [01x01-15 из 22] (2014-2015) WEBDLRip от HitWay и GeneralFilm | NewStudio

117 | 329

10.34 ГБ

В этой теме нет новых непрочитанных сообщений. Вечность / Forever [01x01-14 из 22] (2014-2015) WEBDLRip от HitWay и GeneralFilm | NewStudio

16 | 35

9.65 ГБ

В этой теме нет новых непрочитанных сообщений. Вечность / Forever [01x01-14 из 22] (2014) WEB-DL 720p | LostFilm

11 | 25

19.95 ГБ

В этой теме нет новых непрочитанных сообщений. Вечность / Forever [01x01-14 из 22] (2014) WEB-DL 720p | LostFilm

7 | 18

19.95 ГБ




Вы не можете начинать темы
Вы не можете отвечать на сообщения
Вы не можете редактировать свои сообщения
Вы не можете удалять свои сообщения
Вы не можете добавлять вложения

Перейти:  
Для Мосгорсуда, Роскомнадзора и рекламодателей: mosgorsud-torrent[собачка]yandex.ru
 Вход
ppkBB3cker v.2 © 2008-2014 @ PPK
[ Time : 0.122s | 14 Queries | GZIP : Off ]
CGP output time : 0.093s | 5 Queries | GZIP : Off

Торрент трекер RUTOR.IN, Не можете зайти на rutor.org? Какой новый адрес рутор? Какое зеркало рутор? Не работает rutor.org и зеркала? Тогда наш торрент специально для вас. Rutor.in неофициальное зеркало rutor. В случае если у Вас заблокирован rutor или вдруг Вы не можете на него зайти, то Вы без труда сможете скачать бесплатно и без рекламы последние новинки кино, игр, сериалов и прочего у нас, на Rutor.in. Не нужно использовать прокси, чтобы зайти на рутор, достаточно воспользоваться нашим ресурсом. Все новые фильмы, игры, сериалы, книги и музыка за 2013 и 2014 годы через торрент бесплатно. Скачивайте фильмы в хорошем качестве, игры для пк, xbox, playstation без регистрации. У нас вы найдете новые Зарубежные сериалы и Русские сериалы 2013, 2014, 2015 годов. Оставайтесь с нами, качайте любимые фильмы, игры, сериалы, книги и музыку.