img image001 image001 image001 image001 image001 image001 image001 image001 image001 image001 image001 image001 image001 image001 image001

Planets Sun Sun Sun
Статистика раздачи
Автор: Nickolas3434 | Размер: 5.87 ГБ | Добавлен: 07 май 2015
Раздают: 153    Качают: 52
Скачать торрент
Скачать торрент
Описание торрента

СообщениеДобавлено: 07 май 2015 


Информация о фильме
Название: Батальоны просят огня
Год выхода: 1985
Жанр: драма, военный
Режиссер: Александр Боголюбов, Владимир Чеботарев
В ролях: Александр Збруев, Вадим Спиридонов, Олег Ефремов, Александр Галибин, Елена Попова, Игорь Скляр, Геннадий Фролов, Владимир Кашпур, Виктор Чеботарев, Александр Феклистов, Вадим Андреев, Александр Панкратов-Чёрный, Николай Караченцов, Галина Демчук, Юрий Дубровин, Борислав Брондуков
О фильме: По мотивам одноименной повести Юрия Бондарева. Два батальона брошены в гибельный прорыв на занятый немцами берег Днепра с целью отвлечь на себя силы противника и тем самым облегчить дивизии бросок на стратегически важный город Днепров. Основные соединения должны поддержать их артиллерийским и авиационным огнем. Однако командование внезапно меняет план наступления, оставляя батальоны без огневой поддержки, чем обрекает их на верную гибель. Более того людям отдан приказ держаться до последнего...


Страна: СССР
Продолжительность: 4 х ~ 01:07:43
Язык: Русский
Файл
Качество: DVDRip (AVC)
Видео: MPEG-4 AVC, 2500 Кбит/с, 716x570@764x570
Аудио: AC3, 2 ch, 192 Кбит/с
Общее
Уникальный идентификатор : 251378087601694406871857472670496221624 (0xBD1DA89BCFAA3B23AECC67263E8469B8)
Полное имя : I:МОИ РИПЫБатальоны просят огня_1985-DVDRip-AVCБатальоны-1.mkv
Формат : Matroska
Версия формата : Version 2
Размер файла : 1,19 Гбайт
Продолжительность : 1 ч. 3 м.
Общий поток : 2693 Кбит/сек
Дата кодирования : UTC 2014-10-05 13:37:31
Программа кодирования : mkvmerge v5.2.0 ('I can't explain') built on Dec 18 2011 18:12:03
Библиотека кодирования : libebml v1.2.3 + libmatroska v1.3.0
Видео
Идентификатор : 1
Формат : AVC
Формат/Информация : Advanced Video Codec
Профиль формата : High@L4.1
Параметр CABAC формата : Да
Параметр ReFrames формата : 16 кадров
Идентификатор кодека : V_MPEG4/ISO/AVC
Продолжительность : 1 ч. 3 м.
Битрейт : 2500 Кбит/сек
Ширина : 716 пикселей
Высота : 570 пикселей
Соотношение сторон : 4:3
Режим частоты кадров : Постоянный
Частота кадров : 25,000 кадров/сек
Цветовое пространство : YUV
Субдискретизация насыщенности : 4:2:0
Битовая глубина : 8 бит
Тип развёртки : Прогрессивная
Бит/(Пиксели*Кадры) : 0.245
Размер потока : 1,08 Гбайт (91%)
Библиотека кодирования : x264 core 142 r2431 ac76440
Настройки программы : cabac=1 / ref=16 / deblock=1:-2:-2 / analyse=0x3:0x133 / me=umh / subme=11 / psy=1 / psy_rd=1.09:0.15 / mixed_ref=1 / me_range=32 / chroma_me=1 / trellis=2 / 8x8dct=1 / cqm=0 / deadzone=21,11 / fast_pskip=0 / chroma_qp_offset=-3 / threads=12 / lookahead_threads=2 / sliced_threads=0 / nr=0 / decimate=0 / interlaced=0 / bluray_compat=0 / constrained_intra=0 / bframes=7 / b_pyramid=2 / b_adapt=2 / b_bias=0 / direct=3 / weightb=1 / open_gop=0 / weightp=2 / keyint=250 / keyint_min=25 / scenecut=40 / intra_refresh=0 / rc=2pass / mbtree=0 / bitrate=2500 / ratetol=1.0 / qcomp=0.65 / qpmin=0 / qpmax=39 / qpstep=4 / cplxblur=20.0 / qblur=0.5 / ip_ratio=1.40 / pb_ratio=1.30 / aq=1:0.90
Язык : English
Default : Да
Forced : Нет
Основные цвета : BT.601 PAL
Характеристики трансфера : BT.470 System B, BT.470 System G
Коэффициенты матрицы : BT.601
colour_range : Limited
Аудио
Идентификатор : 2
Формат : AC-3
Формат/Информация : Audio Coding 3
Расширение режима : CM (complete main)
Параметр Endianness формата : Big
Идентификатор кодека : A_AC3
Продолжительность : 1 ч. 3 м.
Вид битрейта : Постоянный
Битрейт : 192 Кбит/сек
Каналы : 2 канала
Расположение каналов : Front: L R
Частота : 48,0 КГц
Битовая глубина : 16 бит
Метод сжатия : С потерями
Задержка видео : 350 мс.
Размер потока : 86,9 Мбайт (7%)
Язык : Russian
Default : Да
Forced : Нет




Релиз от:
Автор релиза:
По просьбе автора релиза на kinozal не перезаливать.



   Похожие торренты   Торрент   Размер 
В этой теме нет новых непрочитанных сообщений. Батальоны просят огня [01-04 из 04] (1985) HDDVDRip-AVC от ExKinoRay

444 | 45

7.57 ГБ

В этой теме нет новых непрочитанных сообщений. Батальоны просят огня [01-04 из 04] (1985) DVDRip

68 | 10

4.57 ГБ

В этой теме нет новых непрочитанных сообщений. Батальоны просят огня (1985) DVDRip

691 | 40

3.52 ГБ

В этой теме нет новых непрочитанных сообщений. Батальоны просят огня [01-04 из 04] (1985) DVDRip-AVC от Тorrent-Хzona

12 | 10

3.64 ГБ

В этой теме нет новых непрочитанных сообщений. Батальоны просят огня [01-04 из 04] (1985) 2хDVD9

5 | 5

15.11 ГБ

В этой теме нет новых непрочитанных сообщений. Бондарев Юрий - Батальоны просят огня (2015) MP3

61 | 5

423.37 МБ

В этой теме нет новых непрочитанных сообщений. Укрощение огня (1972) DVDRip-AVC от ExKinoRay

91 | 11

1.88 ГБ




Вы не можете начинать темы
Вы не можете отвечать на сообщения
Вы не можете редактировать свои сообщения
Вы не можете удалять свои сообщения
Вы не можете добавлять вложения

Перейти:  
Для Мосгорсуда, Роскомнадзора и рекламодателей: mosgorsud-torrent[собачка]yandex.ru
 Вход
ppkBB3cker v.2 © 2008-2014 @ PPK
[ Time : 0.036s | 14 Queries | GZIP : Off ]

Торрент трекер RUTOR.IN, Не можете зайти на rutor.org? Какой новый адрес рутор? Какое зеркало рутор? Не работает rutor.org и зеркала? Тогда наш торрент специально для вас. Rutor.in неофициальное зеркало rutor. В случае если у Вас заблокирован rutor или вдруг Вы не можете на него зайти, то Вы без труда сможете скачать бесплатно и без рекламы последние новинки кино, игр, сериалов и прочего у нас, на Rutor.in. Не нужно использовать прокси, чтобы зайти на рутор, достаточно воспользоваться нашим ресурсом. Все новые фильмы, игры, сериалы, книги и музыка за 2013 и 2014 годы через торрент бесплатно. Скачивайте фильмы в хорошем качестве, игры для пк, xbox, playstation без регистрации. У нас вы найдете новые Зарубежные сериалы и Русские сериалы 2013, 2014, 2015 годов. Оставайтесь с нами, качайте любимые фильмы, игры, сериалы, книги и музыку.