img image001 image001 image001 image001 image001 image001 image001 image001 image001 image001 image001 image001 image001 image001 image001

Planets Sun Sun Sun
Статистика раздачи
Автор: Nickolas3434 | Размер: 19.63 ГБ | Добавлен: 11 май 2015
Раздают: 1072    Качают: 201
Скачать торрент
Скачать торрент
Описание торрента

СообщениеДобавлено: 11 май 2015 


Информация о фильме
Название: Семнадцать мгновений весны
Год выхода: 1973
Жанр: исторический, военный
Режиссер: Татьяна Лиознова
В ролях: Вячеслав Тихонов, Леонид Броневой, Евгений Евстигнеев, Олег Табаков, Ростислав Плятт, Екатерина Градова, Ольга Сошникова, Отто Мелиес, Николай Прокопович, Николай Гриценко
О фильме:
Фильм повествует о событиях, произошедших с 12 февраля по 24 марта 1945 года, незадолго до капитуляции Германии во Второй мировой войне. Герой фильма, советский разведчик штандартенфюрер Макс Отто фон Штирлиц, работающий в центральном аппарате СД, получает задание выяснить, кто из высших руководителей
Страна: СССР
Студия: Киностудия им. М. Горького
Продолжительность: 12 серий по ~ 01:10:00
Файл
Кодек: H.264
Качество: DVDRip-AVC
Видео: MPEG-4 AVC, ~ 2550 Кбит/с, 718x576@768x576, 714х764@764х576
Звук: AC3, 6 ch, 448 Кбит/с, AC3, 1 ch, 112-192 Кбит/с
Язык: Русский
Субтитры: Русские
Навигация по главам: Есть
x264 [info]: frame I:583 Avg QP:16.08 size: 67998
x264 [info]: frame P:23340 Avg QP:19.64 size: 26008
x264 [info]: frame B:79128 Avg QP:22.05 size: 8431
=============================================================================================================
Общее
Уникальный идентификатор : 182980404126323476957054262784943252057 (0x89A8BE73C9ECCE718FD19C5B2A64E259)
Полное имя : I:МОИ РИПЫСемнадцать мгновений весны_1973-DVDRip-AVCШтирлиц-1.mkv
Формат : Matroska
Версия формата : Version 2
Размер файла : 1,49 Гбайт
Продолжительность : 1 ч. 8 м.
Общий поток : 3112 Кбит/сек
Дата кодирования : UTC 2015-02-15 08:15:49
Программа кодирования : mkvmerge v5.8.0 ('No Sleep / Pillow') built on Sep 2 2012 15:37:04
Библиотека кодирования : libebml v1.2.3 + libmatroska v1.3.0
Видео
Идентификатор : 1
Формат : AVC
Формат/Информация : Advanced Video Codec
Профиль формата : High@L4.1
Параметр CABAC формата : Да
Параметр ReFrames формата : 14 кадров
Идентификатор кодека : V_MPEG4/ISO/AVC
Продолжительность : 1 ч. 8 м.
Битрейт : 2550 Кбит/сек
Ширина : 718 пикселей
Высота : 576 пикселей
Соотношение сторон : 4:3
Режим частоты кадров : Постоянный
Частота кадров : 25,000 кадров/сек
Цветовое пространство : YUV
Субдискретизация насыщенности : 4:2:0
Битовая глубина : 8 бит
Тип развёртки : Прогрессивная
Бит/(Пиксели*Кадры) : 0.247
Размер потока : 1,19 Гбайт (80%)
Библиотека кодирования : x264 core 130 r2273 b3065e6
Настройки программы : cabac=1 / ref=14 / deblock=1:-2:-2 / analyse=0x3:0x133 / me=umh / subme=10 / psy=1 / psy_rd=1.05:0.09 / mixed_ref=1 / me_range=32 / chroma_me=1 / trellis=2 / 8x8dct=1 / cqm=0 / deadzone=21,11 / fast_pskip=0 / chroma_qp_offset=-3 / threads=12 / lookahead_threads=3 / sliced_threads=0 / nr=0 / decimate=0 / interlaced=0 / bluray_compat=0 / constrained_intra=0 / bframes=10 / b_pyramid=2 / b_adapt=2 / b_bias=0 / direct=3 / weightb=1 / open_gop=0 / weightp=2 / keyint=250 / keyint_min=25 / scenecut=40 / intra_refresh=0 / rc=2pass / mbtree=0 / bitrate=2550 / ratetol=1.0 / qcomp=0.60 / qpmin=0 / qpmax=39 / qpstep=4 / cplxblur=20.0 / qblur=0.5 / ip_ratio=1.40 / pb_ratio=1.30 / aq=1:1.00
Язык : English
Default : Да
Forced : Нет
Основные цвета : BT.601 PAL
Характеристики трансфера : BT.470 System B, BT.470 System G
Коэффициенты матрицы : BT.601
colour_range : Limited
Аудио #1
Идентификатор : 2
Формат : AC-3
Формат/Информация : Audio Coding 3
Расширение режима : CM (complete main)
Параметр Endianness формата : Big
Идентификатор кодека : A_AC3
Продолжительность : 1 ч. 8 м.
Вид битрейта : Постоянный
Битрейт : 448 Кбит/сек
Каналы : 6 каналов
Расположение каналов : Front: L C R, Side: L R, LFE
Частота : 48,0 КГц
Битовая глубина : 16 бит
Метод сжатия : С потерями
Размер потока : 220 Мбайт (14%)
Язык : Russian
Default : Да
Forced : Нет
Аудио #2
Идентификатор : 3
Формат : AC-3
Формат/Информация : Audio Coding 3
Расширение режима : CM (complete main)
Параметр Endianness формата : Big
Идентификатор кодека : A_AC3
Продолжительность : 1 ч. 8 м.
Вид битрейта : Постоянный
Битрейт : 112 Кбит/сек
Каналы : 1 канал
Расположение каналов : Front: C
Частота : 48,0 КГц
Битовая глубина : 16 бит
Метод сжатия : С потерями
Размер потока : 55,0 Мбайт (4%)
Заголовок : Магнитная фонограмма
Язык : Russian
Default : Нет
Forced : Нет
Текст
Идентификатор : 4
Формат : UTF-8
Идентификатор кодека : S_TEXT/UTF8
Идентификатор кодека/Информация : UTF-8 Plain Text
Язык : Russian
Default : Нет
Forced : Нет
Меню
00:00:00.000 : :1. Лес ранней весной
00:07:54.600 : :2. Бункер Гитлера
00:10:32.400 : :3. Бригаденфюрер СС Шелленберг
00:14:06.600 : :4. "United News"
00:20:41.400 : :5. "Die Deutshe Wochenshau"
00:26:05.400 : :6. Спецвыпуск. Конференция в Ялте
00:28:15.600 : :7. Оберштурмбанфюрер СС Холтофф
00:35:43.800 : :8. Штандартенфюрер СС Штирлиц
00:39:33.600 : :9. Пастор Шлаг
00:44:27.000 : :10. Провал Краковской операции
00:53:24.000 : :11. Освобождение Будапешта
01:05:05.400 : :12. Центр - Юстасу







Дополнительно: Семнадцать мгновений весны: 25 лет спустя. О феномене "Семнадцати мгновений" и снят двухсерийный документальный фильм. Впервые за 25 лет режиссер Татьяна Лиознова согласилась рассказать творческой группе и ведущему Леониду Парфенову эту эпопею, которая сама обросла легендами, стала мифом. Именно ее участие в работе над документальным фильмом позволяет впервые восстановить события, полные и драматических поворотов, и курьезных случаев. Ее рассказ дополняется самостоятельным расследованием, позволившим дать различные точки зрения на одни и те же эпизоды.
Видео: MPEG-4 AVC, ~ 2650 Кбит/с, 696x572@742x572
Аудио: AC3, 2 ch, 224 Кбит/с
Продолжительность: 01:48:18




Релиз от:
Автор релиза:
По просьбе автора релиза на kinozal не перезаливать.



   Похожие торренты   Торрент   Размер 
В этой теме нет новых непрочитанных сообщений. Семнадцать мгновений весны (1973) DVDRip-AVC

399 | 139

12.87 ГБ

В этой теме нет новых непрочитанных сообщений. Семнадцать мгновений весны (1973) DVDRip

477 | 140

8.21 ГБ

В этой теме нет новых непрочитанных сообщений. Семнадцать мгновений весны (1973) DVDRip by гаврила

113 | 9

12.83 ГБ

В этой теме нет новых непрочитанных сообщений. Семнадцать мгновений весны (1973) DVDRip от Files-x | Цветной

836 | 153

10.43 ГБ

В этой теме нет новых непрочитанных сообщений. Семнадцать мгновений весны (1973) SATRip | Цветной | КПК

266 | 73

3.27 ГБ

В этой теме нет новых непрочитанных сообщений. Семнадцать мгновений весны / Михаил Таривердиев OST (1973) APE by гаврила

4 | 4

210.02 МБ

В этой теме нет новых непрочитанных сообщений. Семнадцать мгновений весны (1973) SATRip от Nicolaich98 | Цветной

235 | 28

8.18 ГБ




Вы не можете начинать темы
Вы не можете отвечать на сообщения
Вы не можете редактировать свои сообщения
Вы не можете удалять свои сообщения
Вы не можете добавлять вложения

Перейти:  
Для Мосгорсуда, Роскомнадзора и рекламодателей: mosgorsud-torrent[собачка]yandex.ru
 Вход
ppkBB3cker v.2 © 2008-2014 @ PPK
[ Time : 0.171s | 15 Queries | GZIP : Off ]
CGP output time : 0.018s | 5 Queries | GZIP : Off

Торрент трекер RUTOR.IN, Не можете зайти на rutor.org? Какой новый адрес рутор? Какое зеркало рутор? Не работает rutor.org и зеркала? Тогда наш торрент специально для вас. Rutor.in неофициальное зеркало rutor. В случае если у Вас заблокирован rutor или вдруг Вы не можете на него зайти, то Вы без труда сможете скачать бесплатно и без рекламы последние новинки кино, игр, сериалов и прочего у нас, на Rutor.in. Не нужно использовать прокси, чтобы зайти на рутор, достаточно воспользоваться нашим ресурсом. Все новые фильмы, игры, сериалы, книги и музыка за 2013 и 2014 годы через торрент бесплатно. Скачивайте фильмы в хорошем качестве, игры для пк, xbox, playstation без регистрации. У нас вы найдете новые Зарубежные сериалы и Русские сериалы 2013, 2014, 2015 годов. Оставайтесь с нами, качайте любимые фильмы, игры, сериалы, книги и музыку.