img image001 image001 image001 image001 image001 image001 image001 image001 image001 image001 image001 image001 image001 image001 image001

Planets Sun Sun Sun
Статистика раздачи
Автор: Nickolas3434 | Размер: 1.49 ГБ | Добавлен: 11 май 2015
Раздают: 2    Качают: 7
Скачать торрент
Скачать торрент
Описание торрента

СообщениеДобавлено: 11 май 2015 


Информация о фильме
Название: Снег и пепел
Год выхода: 2015
Жанр: Детектив, военный
Режиссер: Александр Кириенко
В ролях: Денис Шведов, Ольга Сутулова, Анатолий Белый, Даниил Спиваковский, Константин Воробьёв, Алёна Ивченко, Яков Шамшин, Игнатий Акрачков, Алексей Гришин, Юрий Ицков, Алексей Красноцветов, Антонис Шаманиди, Любовь Макеева, Евгений Капитонов, Сергей Бызгу
О фильме:
В 1942 году крупное подразделение советских войск попадает в немецкий «котел» — с тылами армию соединяет лишь узкий перешеек, окруженный болотами. Немцы готовят прорыв, среди русских находится опытный диверсант. Для его разоблачения НКВД внедряет одного из лучших сотрудников, майора Урусова, который берет с собой трех молодых разведчиков. Выдавая себя за полковника Ямпольского, Урусов начинает расследование, а диверсант не дремлет: одного за другим убирает свидетелей и организует постройку лесной дороги для прохода немецкой бронетехники через кажущийся непроходимым лес. У Урусова постоянно появляются новые подозреваемые, но каждая версия рассыпается, как назло.

Страна: Россия
Продолжительность: ~ 00:45:00
Язык: Русский
Файл
Качество: WEB-DLRip (AVC)
Видео: MPEG-4 AVC, ~ 2100 Kбит/с, 1024x574, 25.000 кадр/с
Аудио: AC3, 2 ch, 192 Кбит/с
General
Unique ID : 239958618745437636157208208804087975664 (0xB48659532F8D887791FB024E1999CEF0)
Complete name : C:Sneg.i.pepel.2015.WEB-DLRip.AVC.ExKinoRaySneg.i.pepel.01.2015.WEB-DLRip.AVC.ExKinoRay.mkv
Format : Matroska
Format version : Version 4 / Version 2
File size : 770 MiB
Duration : 45mn 37s
Overall bit rate : 2 359 Kbps
Movie name : Sneg i pepel 2015 from ExKinoRay
Encoded date : UTC 2015-05-11 02:14:57
Writing application : mkvmerge v6.6.0 ('The Edge Of The In Between') built on Dec 1 2013 17:55:00
Writing library : libebml v1.3.0 + libmatroska v1.4.1
Video
ID : 1
Format : AVC
Format/Info : Advanced Video Codec
Format profile : High@L4.1
Format settings, CABAC : Yes
Format settings, ReFrames : 9 frames
Codec ID : V_MPEG4/ISO/AVC
Duration : 45mn 37s
Bit rate : 2 166 Kbps
Width : 1 024 pixels
Height : 574 pixels
Display aspect ratio : 16:9
Frame rate mode : Constant
Frame rate : 25.000 fps
Color space : YUV
Chroma subsampling : 4:2:0
Bit depth : 8 bits
Scan type : Progressive
Bits/(Pixel*Frame) : 0.147
Stream size : 692 MiB (90%)
Title : Enigma
Writing library : x264 core 133 r2334 a3ac64b
Encoding settings : cabac=1 / ref=9 / deblock=1:-2:-2 / analyse=0x3:0x113 / me=umh / subme=10 / psy=1 / psy_rd=1.05:0.15 / mixed_ref=1 / me_range=32 / chroma_me=1 / trellis=2 / 8x8dct=1 / cqm=0 / deadzone=21,11 / fast_pskip=0 / chroma_qp_offset=-3 / threads=12 / lookahead_threads=2 / sliced_threads=0 / nr=0 / decimate=0 / interlaced=0 / bluray_compat=0 / constrained_intra=0 / bframes=9 / b_pyramid=2 / b_adapt=2 / b_bias=0 / direct=3 / weightb=1 / open_gop=0 / weightp=2 / keyint=250 / keyint_min=25 / scenecut=40 / intra_refresh=0 / rc=2pass / mbtree=0 / bitrate=2166 / ratetol=1.0 / qcomp=0.65 / qpmin=0 / qpmax=51 / qpstep=4 / cplxblur=20.0 / qblur=0.5 / ip_ratio=1.40 / pb_ratio=1.30 / aq=1:1.00
Default : Yes
Forced : No
Color primaries : BT.709
Transfer characteristics : BT.709
Matrix coefficients : BT.709
Audio
ID : 2
Format : AC-3
Format/Info : Audio Coding 3
Mode extension : CM (complete main)
Format settings, Endianness : Big
Codec ID : A_AC3
Duration : 45mn 37s
Bit rate mode : Constant
Bit rate : 192 Kbps
Channel(s) : 2 channels
Channel positions : Front: L R
Sampling rate : 44.1 KHz
Bit depth : 16 bits
Compression mode : Lossy
Stream size : 62.7 MiB (8%)
Language : Russian
Default : Yes
Forced : No





Когда раздача ведётся путём добавления новых серий, при каждом добавлении создётся новый торрент. Чтобы начать докачку новой серии, пользователям необходимо сделать следующее:
(1) остановить скачивание,
(2) удалить старый торрент у себя из клиента (старые серии удалять не надо),
(3) скачать новый торрент и запустить его у себя в клиенте вместо старого, при этом указать клиенту путь в старую папку, куда и должно происходить скачивание новых серий.
Ваш клиент при этом должен произвести хеширование (проверку) старой папки (если не производит сам - помогите ему сделать это), и будет докачивать только те серии, которых у вас ещё нет. Старые серии при этом не удаляются, а продолжают раздаваться!
Eсли вы уже удалили старые серии, то предотвратить повторную закачку старых серий можно, отжав галочку в соответсвующих местах при запуске нового торрента. По возможности, желательно не удалять старые серии как можно дольше, чтобы релизёр не столько продолжал раздавать старые серии, а смог сконцентрироваться на новых.

Релиз от:
Автор релиза:



   Похожие торренты   Торрент   Размер 
В этой теме нет новых непрочитанных сообщений. Снег и пепел [01-02 из 04] (2015) WEB-DLRip-AVC от ExKinoRay

174 | 14

3.02 ГБ

В этой теме нет новых непрочитанных сообщений. Снег и пепел [01-04 из 04] (2015) WEB-DLRip от Files-x

1582 | 246

2.16 ГБ

В этой теме нет новых непрочитанных сообщений. Снег и пепел [01-04 из 04] (2015) WEB-DLRip от MegaPeer

609 | 50

2.73 ГБ

В этой теме нет новых непрочитанных сообщений. Снег и пепел [01-04 из 04] (2015) WEB-DLRip от MediaClub | КПК

418 | 37

842.16 МБ

В этой теме нет новых непрочитанных сообщений. Снег и пепел [01-04 из 04] (2015) WEB-DLRip 720p от MegaPeer

943 | 243

4.62 ГБ

В этой теме нет новых непрочитанных сообщений. Снег и пепел [01-04 из 04] (2015) WEB-DLRip от GeneralFilm & Files-x | КПК

145 | 14

637.59 МБ

В этой теме нет новых непрочитанных сообщений. Снег и пепел [01-01 из 04] (2015) SATRip

1681 | 193

2.43 ГБ




Вы не можете начинать темы
Вы не можете отвечать на сообщения
Вы не можете редактировать свои сообщения
Вы не можете удалять свои сообщения
Вы не можете добавлять вложения

Перейти:  
Для Мосгорсуда, Роскомнадзора и рекламодателей: mosgorsud-torrent[собачка]yandex.ru
 Вход
ppkBB3cker v.2 © 2008-2014 @ PPK
[ Time : 0.070s | 15 Queries | GZIP : Off ]

Торрент трекер RUTOR.IN, Не можете зайти на rutor.org? Какой новый адрес рутор? Какое зеркало рутор? Не работает rutor.org и зеркала? Тогда наш торрент специально для вас. Rutor.in неофициальное зеркало rutor. В случае если у Вас заблокирован rutor или вдруг Вы не можете на него зайти, то Вы без труда сможете скачать бесплатно и без рекламы последние новинки кино, игр, сериалов и прочего у нас, на Rutor.in. Не нужно использовать прокси, чтобы зайти на рутор, достаточно воспользоваться нашим ресурсом. Все новые фильмы, игры, сериалы, книги и музыка за 2013 и 2014 годы через торрент бесплатно. Скачивайте фильмы в хорошем качестве, игры для пк, xbox, playstation без регистрации. У нас вы найдете новые Зарубежные сериалы и Русские сериалы 2013, 2014, 2015 годов. Оставайтесь с нами, качайте любимые фильмы, игры, сериалы, книги и музыку.