img image001 image001 image001 image001 image001 image001 image001 image001 image001 image001 image001 image001 image001 image001 image001

Planets Sun Sun Sun
Статистика раздачи
Автор: Nickolas3434 | Размер: 3.17 ГБ | Добавлен: 14 май 2015
Раздают: 623    Качают: 53
Скачать торрент
Скачать торрент
Описание торрента

СообщениеДобавлено: 14 май 2015 


Оригинальное название: Белая ночь
Год выпуска: 2015
Жанр: Детектив, военный
Выпущено: Россия, Кинокомпания Триикс Медиа
Режиссер: Александр Якимчук
В ролях: Сергей Юшкевич, Александр Фисенко, Олег Федоров (III), Георгий Неусыпов, Иван Патраман, Виталий Жигалин, Андрей Котов (II), Валерий Малюшин, Юлия Горшенина, Ольга Гагарина, Ирина Умикова, Роман Притула, Екатерина Новикова, Ринат Ибрагимов, Сергей Гарусов, Денис Рейшахрит
О фильме: 1944 год. Диверсионная группа под руководством капитана Сергея Туманова возвращается из-за линии фронта после выполнения важного задания. Чтобы оторваться от преследования Туманов принимает непростое решение избавиться от двух пленных немецких офицеров – иначе жизнь его людей окажется под угрозой. Позже за это решение Туманова арестовывают сотрудники НКВД, но опытному диверсанту удается сбежать. 1947 год. В послевоенном Ленинграде происходит несколько громких преступлений. Сотрудники отдела по борьбе с бандитизмом вскоре выясняют, что все эти преступления объединяет одна особенность – они слишком тщательно спланированы. Начальник ОББ Юрий Некрылов понимает, что столкнулся с крайне опасным преступником, и обычными методами его не задержать. Потому что этот преступник – бывший советский разведчик Сергей Туманов…
Файл
Качество: HDTVRip-AVC
Видео: MPEG-4 AVC, ~ 2300 Кбит/с, 1024x576
Аудио: AC3, 2 ch, 192 Кбит/с
Размер: 3.17 ГБ
Продолжительность: 4 х ~ 00:45:00
Язык: Русский
x264 [info]: frame I:415 Avg QP:13.52 size: 83217
x264 [info]: frame P:17867 Avg QP:17.18 size: 26492
x264 [info]: frame B:51478 Avg QP:20.53 size: 5709
Общее
Уникальный идентификатор : 182591922206103018752347034042642209458 (0x895DECD099CF12459A589503D8A81AB2)
Полное имя : F:Belaya.noch.2015.HDTVRip.(AVC).by.bog3417Belaya.noch.(01.seriya.iz.04).2015.HDTVRip.(AVC).by.bog3417.mkv
Формат : Matroska
Версия формата : Version 2
Размер файла : 767 Мбайт
Продолжительность : 43 м.
Общий поток : 2494 Кбит/сек
Название фильма : Belaya.noch.(01.seriya.iz.04).2015.HDTVRip.(AVC).by.bog3417.mkv
Дата кодирования : UTC 2015-05-10 08:32:31
Программа кодирования : mkvmerge v7.4.0 ('Circles') 64bit built on Dec 12 2014 12:19:56
Библиотека кодирования : libebml v1.3.0 + libmatroska v1.4.1
DURATION : 00:43:00.864000000
NUMBER_OF_FRAMES : 80652
NUMBER_OF_BYTES : 61940736
_STATISTICS_WRITING_APP : mkvmerge v7.4.0 ('Circles') 64bit built on Dec 12 2014 12:19:56
_STATISTICS_WRITING_DATE_UTC : 2015-05-10 08:32:31
_STATISTICS_TAGS : BPS DURATION NUMBER_OF_FRAMES NUMBER_OF_BYTES
Видео
Идентификатор : 1
Формат : AVC
Формат/Информация : Advanced Video Codec
Профиль формата : High@L4.1
Параметр CABAC формата : Да
Параметр ReFrames формата : 9 кадров
Идентификатор кодека : V_MPEG4/ISO/AVC
Продолжительность : 43 м.
Битрейт : 2300 Кбит/сек
Ширина : 1024 пикселя
Высота : 576 пикселей
Соотношение сторон : 16:9
Режим частоты кадров : Постоянный
Частота кадров : 25,000 кадров/сек
Цветовое пространство : YUV
Субдискретизация насыщенности : 4:2:0
Битовая глубина : 8 бит
Тип развёртки : Прогрессивная
Бит/(Пиксели*Кадры) : 0.156
Размер потока : 693 Мбайт (90%)
Заголовок : Belaya.noch.(01.seriya.iz.04).2015.HDTVRip.(AVC).by.bog3417.mkv
Библиотека кодирования : x264 core 146 r2538 121396c
Настройки программы : cabac=1 / ref=9 / deblock=1:-3:-3 / analyse=0x3:0x33 / me=umh / subme=11 / psy=1 / psy_rd=1.00:0.15 / mixed_ref=1 / me_range=32 / chroma_me=1 / trellis=2 / 8x8dct=1 / cqm=0 / deadzone=21,11 / fast_pskip=0 / chroma_qp_offset=-3 / threads=12 / lookahead_threads=2 / sliced_threads=0 / nr=0 / decimate=0 / interlaced=0 / bluray_compat=0 / constrained_intra=0 / bframes=9 / b_pyramid=2 / b_adapt=2 / b_bias=0 / direct=3 / weightb=1 / open_gop=0 / weightp=2 / keyint=250 / keyint_min=25 / scenecut=40 / intra_refresh=0 / rc_lookahead=60 / rc=2pass / mbtree=1 / bitrate=2300 / ratetol=1.0 / qcomp=0.60 / qpmin=0 / qpmax=69 / qpstep=4 / cplxblur=20.0 / qblur=0.5 / ip_ratio=1.40 / aq=3:0.90
Default : Да
Forced : Нет
Аудио
Идентификатор : 2
Формат : AC-3
Формат/Информация : Audio Coding 3
Расширение режима : CM (complete main)
Параметр Endianness формата : Big
Идентификатор кодека : A_AC3
Продолжительность : 43 м.
Вид битрейта : Постоянный
Битрейт : 192 Кбит/сек
Каналы : 2 канала
Расположение каналов : Front: L R
Частота : 48,0 КГц
Битовая глубина : 16 бит
Метод сжатия : С потерями
Размер потока : 59,1 Мбайт (8%)
Default : Да
Forced : Нет






   Похожие торренты   Торрент   Размер 
В этой теме нет новых непрочитанных сообщений. Белая ночь [01-04 из 04] (2015) HDTVRip-AVC

0 | 64

2.11 ГБ

В этой теме нет новых непрочитанных сообщений. Белая ночь [01 из 04] (2015) HDTVRip от Files-x

28 | 2

549.94 МБ

В этой теме нет новых непрочитанных сообщений. Белая ночь [01-04 из 04] (2015) HDTVRip 720p

1326 | 171

4.69 ГБ

В этой теме нет новых непрочитанных сообщений. Белая ночь [01 из 04] (2015) HDTVRip-AVC от ExKinoRay

446 | 50

2.47 ГБ

В этой теме нет новых непрочитанных сообщений. Белая ночь [01-04 из 04] (2015) HDTVRip от MediaClub | КПК

187 | 25

830.52 МБ

В этой теме нет новых непрочитанных сообщений. Белая ночь [01-04 из 04] (2015) HDTVRip от Files-x

2890 | 282

2.15 ГБ

В этой теме нет новых непрочитанных сообщений. Белая ночь [01-04 из 04] (2015) HDTVRip от GeneralFilm & Files-x | КПК

492 | 17

623.22 МБ




Вы не можете начинать темы
Вы не можете отвечать на сообщения
Вы не можете редактировать свои сообщения
Вы не можете удалять свои сообщения
Вы не можете добавлять вложения

Перейти:  
Для Мосгорсуда, Роскомнадзора и рекламодателей: mosgorsud-torrent[собачка]yandex.ru
 Вход
ppkBB3cker v.2 © 2008-2014 @ PPK
[ Time : 0.042s | 17 Queries | GZIP : Off ]

Торрент трекер RUTOR.IN, Не можете зайти на rutor.org? Какой новый адрес рутор? Какое зеркало рутор? Не работает rutor.org и зеркала? Тогда наш торрент специально для вас. Rutor.in неофициальное зеркало rutor. В случае если у Вас заблокирован rutor или вдруг Вы не можете на него зайти, то Вы без труда сможете скачать бесплатно и без рекламы последние новинки кино, игр, сериалов и прочего у нас, на Rutor.in. Не нужно использовать прокси, чтобы зайти на рутор, достаточно воспользоваться нашим ресурсом. Все новые фильмы, игры, сериалы, книги и музыка за 2013 и 2014 годы через торрент бесплатно. Скачивайте фильмы в хорошем качестве, игры для пк, xbox, playstation без регистрации. У нас вы найдете новые Зарубежные сериалы и Русские сериалы 2013, 2014, 2015 годов. Оставайтесь с нами, качайте любимые фильмы, игры, сериалы, книги и музыку.