img image001 image001 image001 image001 image001 image001 image001 image001 image001 image001 image001 image001 image001 image001 image001

Planets Sun Sun Sun
Статистика раздачи
Автор: Nickolas3434 | Размер: 12.5 ГБ | Добавлен: 14 май 2015
Раздают: 324    Качают: 476
Скачать торрент
Скачать торрент
Описание торрента

СообщениеДобавлено: 14 май 2015 


Информация о фильме
Название: Мерлин
Оригинальное название: Merlin
Год выпуска: 2008
Жанр: Фэнтези, драма, приключения, семейный
Страна: Великобритания
Режиссер: Джеймс Хоуз, Джулиан Джонс, Джейк Мичи, Джонни Капс, Джулиан Мерфи
В ролях: Колин Морган, Энджел Колби, Брэдли Джеймс, Кэти МакГрат, Энтони Хед, Ричард Уилсон, Руперт Янг, Эмилия Фокс, Майкл Кронин, Мишель Райан, Эйн Мэкен, Том Эллис, Эйса Баттерфилд, Кэролайн Фабер, Сантьяго Кабрера, Элис Паттен, Адам Годли, Сара Пэриш, Дэвид Дархэм, Майкл Дженн, Лаура Доннелли, Кэлам Макферсон, Гари Оливер, Рик Инглиш, Тревор Селлерс, Эд Коулмэн, Миранда Рэйсон, Ив Майлс, Луиз Дилан
Описание:
Это история юного мага, ставшего впоследствии самым знаменитым и могущественным волшебником из всех, когда-либо живших на земле. Действие начинается с того дня, когда юный волшебник впервые оказывается в королевстве Камелот, и повествует о событиях, предшествующих легендарной истории о Мерлине и короле Артуре. Действующий король Камелота уже более двадцати лет ведет ярую войну против магии. Он запрещает гражданам своего королевства использовать ее в жизни, так как когда-то это перешло все границы дозволенного, каждый мог по книгам обучиться искусству колдовства и применять магию во зло, а не во благо.Чтобы навести порядок, король уничтожает практически всех драконов, изгоняет из королевства или приказывает публично казнить колдунов. И вот когда с магией и колдовством вроде бы покончено, король решает отпраздновать это большим пиром, на котором, именно с помощью волшебства, Мерлин спасет единственного и любимого сына короля - Артура. С этого момента судьбы Мерлина и Артура будут крепко связаны, и именно благодаря Мерлину, в будущем Артур станет королем Альбиона…

1 сезон
01..01. Зов дракона
01..02. Валиэнт
01..03. Метка Нимуэ
01..04. Отравленная чаша
01..05. Ланселот
01..06. Лекарство от всех болезней
01..07. Врата Авалона
01..08. Начало конца
01..09. Экскалибур
01..10. Момент истины
01..11. Лабиринт Гедрефа
01..12. Убить короля
01..13. Смерть Артура
2 сезон
02..01. Проклятие Корнелиуса Сигана
02..02. Королева настоящего и грядущего
02..03. Кошмар начинается
02..04. Ланселот и Гвиневра
02..05. Красавица и чудовище: часть 1
02..06. Красавица и чудовище: часть 2
02..07. Охотник на ведьм
02..08. Грехи отцов
02..09. Владычица Озера
02..10. Сладких снов
02..11. Пробуждение ведьмы
02..12. Огни Идиршоласа
02..13. Последний повелитель драконов
3 сезон
03..01. Слёзы Утера Пендрагона: часть 1
03..02. Слёзы Утера Пендрагона: часть 2
03..03. Золото гоблина
03..04. Гвейн
03..05. Хрустальный грот
03..06. Подмена
03..07. Замок Фириана
03..08. Глаз феникса
03..09. Любовь во времена драконов
03..10. Королева сердец
03..11. Тень чародея
03..12. Восшествие Артура: Часть 1
03..13. Восшествие Артура: Часть 2
4 сезон
04..01. Самый тёмный час: Часть 1
04..02. Самый тёмный час: Часть 2
04..03. Плохой день
04..04. Эйсуза
04..05. Сын своего отца
04..06. Слуга двух господ
04..07. Тайный союзник
04..08. Ламия
04..09. Ланселот Озерный
04..10. Предвестник новой эпохи
04..11. Сердце охотника
04..12. Меч в камне: Часть 1
04..13. Меч в камне: Часть 2
5 сезон
05..01. Погибель Артура: Часть 1
05..02. Погибель Артура: Часть 2
05..03. Лебединая песнь Утера Пендрагона
05..04. Чужое горе
05..05. Изиды
05..06. Темная башня
05..07. Урок мести
05..08. Королева-марионетка
05..09. От всего сердца
05..10. Доброта незнакомцев
05..11. Рисунок тьмы
05..12. Алмаз дня: Часть 1
05..13. Алмаз дня: Часть 2

Страна: Великобритания
Студия: Shine, BBC Wales
Продолжительность: 65 х ~ 00:43:00
Перевод: Профессиональный (многоголосый, закадровый) [ТВ3]
Файл
Формат: MP4
Качество: DVDRip [Сезоны 1-3], HDRip [Сезоны 4-5] | КПК
Видео: MPEG-4 AVC (x264), 640x360, ~500 kbps, 25.000 fps
Аудио: AAC LC, 48.0 KHz, 2 ch, 128 Kbps
Субтитры: Нет
Семпл

Complete name : E:KinoMerlin.AVC.KPK.TB3.GeneralfilmMerlin.S03.2010.AVC.DVDRip.KPK.TB3.GeneralfilmMerlin.s03e07.2010.AVC.DVDRip.KPK.TB3.Generalfilm.mp4
Format : MPEG-4
Format profile : Base Media
Codec ID : isom
File size : 194 MiB
Duration : 43mn 2s
Overall bit rate mode : Variable
Overall bit rate : 632 Kbps
Encoded date : UTC 2015-04-28 08:37:54
Tagged date : UTC 2015-04-28 08:37:54
Video
ID : 1
Format : AVC
Format/Info : Advanced Video Codec
Format profile : High@L4.1
Format settings, CABAC : Yes
Format settings, ReFrames : 8 frames
Codec ID : avc1
Codec ID/Info : Advanced Video Coding
Duration : 43mn 2s
Bit rate : 500 Kbps
Maximum bit rate : 2 160 Kbps
Width : 640 pixels
Height : 360 pixels
Display aspect ratio : 16:9
Frame rate mode : Constant
Frame rate : 25.000 fps
Color space : YUV
Chroma subsampling : 4:2:0
Bit depth : 8 bits
Scan type : Progressive
Bits/(Pixel*Frame) : 0.087
Stream size : 154 MiB (79%)
Writing library : x264 core 130 r2273 b3065e6
Encoding settings : cabac=1 / ref=8 / deblock=1:-1:-1 / analyse=0x3:0x133 / me=umh / subme=10 / psy=1 / psy_rd=1.00:0.00 / mixed_ref=1 / me_range=24 / chroma_me=1 / trellis=2 / 8x8dct=1 / cqm=0 / deadzone=21,11 / fast_pskip=1 / chroma_qp_offset=-2 / threads=3 / lookahead_threads=1 / sliced_threads=0 / nr=0 / decimate=1 / interlaced=0 / bluray_compat=0 / constrained_intra=0 / bframes=8 / b_pyramid=2 / b_adapt=2 / b_bias=0 / direct=3 / weightb=1 / open_gop=0 / weightp=2 / keyint=250 / keyint_min=126 / scenecut=40 / intra_refresh=0 / rc_lookahead=40 / rc=2pass / mbtree=1 / bitrate=500 / ratetol=1.0 / qcomp=0.60 / qpmin=0 / qpmax=69 / qpstep=4 / cplxblur=20.0 / qblur=0.5 / ip_ratio=1.40 / aq=1:1.00
Encoded date : UTC 2015-04-28 08:37:54
Tagged date : UTC 2015-04-28 08:38:43
Audio
ID : 2
Format : AAC
Format/Info : Advanced Audio Codec
Format profile : LC
Codec ID : 40
Duration : 43mn 2s
Bit rate mode : Variable
Bit rate : 128 Kbps
Maximum bit rate : 167 Kbps
Channel count : 2 channels
Channel positions : Front: L R
Sampling rate : 48.0 KHz
Compression mode : Lossy
Delay relative to video : 120ms
Stream size : 39.4 MiB (20%)
Encoded date : UTC 2015-04-28 08:38:37
Tagged date : UTC 2015-04-28 08:38:43

Релиз от:



   Похожие торренты   Торрент   Размер 
В этой теме нет новых непрочитанных сообщений. Мерлин / Merlin [S01-05] (2008-2012) DVDRip, WEB-DLRip | ТВ3

292 | 151

26.28 ГБ

В этой теме нет новых непрочитанных сообщений. Мерлин / Merlin and the War of the Dragons (2008) DVDRip

2 | 37

1.37 ГБ

В этой теме нет новых непрочитанных сообщений. Мерлин / Merlin [S05] (2012) HDTVRip | BaibaKo

5 | 10

7.4 ГБ

В этой теме нет новых непрочитанных сообщений. Мерлин / Merlin [S05] (2012) HDTVRip 720 | AlexFilm

12 | 9

11.94 ГБ

В этой теме нет новых непрочитанных сообщений. Мерлин / Merlin [S04] (2011) DVDRip | P TB3

8 | 6

5.07 ГБ

В этой теме нет новых непрочитанных сообщений. Мерлин / Merlin [05x01-13] (2012) HDTVRip | AlexFilm

46 | 9

5.89 ГБ

В этой теме нет новых непрочитанных сообщений. Мерлин / Merlin [05x01-11] (2012) HDTVRip | BaibaKo

1 | 4

6.2 ГБ




Вы не можете начинать темы
Вы не можете отвечать на сообщения
Вы не можете редактировать свои сообщения
Вы не можете удалять свои сообщения
Вы не можете добавлять вложения

Перейти:  
Для Мосгорсуда, Роскомнадзора и рекламодателей: mosgorsud-torrent[собачка]yandex.ru
 Вход
ppkBB3cker v.2 © 2008-2014 @ PPK
[ Time : 0.037s | 14 Queries | GZIP : Off ]

Торрент трекер RUTOR.IN, Не можете зайти на rutor.org? Какой новый адрес рутор? Какое зеркало рутор? Не работает rutor.org и зеркала? Тогда наш торрент специально для вас. Rutor.in неофициальное зеркало rutor. В случае если у Вас заблокирован rutor или вдруг Вы не можете на него зайти, то Вы без труда сможете скачать бесплатно и без рекламы последние новинки кино, игр, сериалов и прочего у нас, на Rutor.in. Не нужно использовать прокси, чтобы зайти на рутор, достаточно воспользоваться нашим ресурсом. Все новые фильмы, игры, сериалы, книги и музыка за 2013 и 2014 годы через торрент бесплатно. Скачивайте фильмы в хорошем качестве, игры для пк, xbox, playstation без регистрации. У нас вы найдете новые Зарубежные сериалы и Русские сериалы 2013, 2014, 2015 годов. Оставайтесь с нами, качайте любимые фильмы, игры, сериалы, книги и музыку.