img image001 image001 image001 image001 image001 image001 image001 image001 image001 image001 image001 image001 image001 image001 image001

Planets Sun Sun Sun
Статистика раздачи
Автор: Nickolas3434 | Размер: 10.15 ГБ | Добавлен: 16 май 2015
Раздают: 191    Качают: 64
Скачать торрент
Скачать торрент
Описание торрента

СообщениеДобавлено: 16 май 2015 


Информация о фильме
Название: Ой, Ма-моч-ки!.. (Ой, мамочки!)
Год выхода: 2013-2014
Жанр: Мелодрама
Режиссер: Иван Павлов
В ролях: Александр Макогон, Вера Полякова, Александра Назарова, Анна Казючиц, Игорь Сигов, Алеся Пуховая, Валентина Гарцуева, Светлана Боровская, Анастасия Орёл, Денис Паршин, Владислав Бархатов, Сергей Власов (IV), Татьяна Чердынцева, Елена Дубровская, Инна Коляда, Яна Касперович, Светлана Аникей, Светлана Зеленковская, Оксана Лесная, Вероника Пляшкевич, Евгения Кульбачная, Екатерина Шуляк
О фильме:
Вера Михайловна работает заведующей отделением патологии в одном из городских родильных домов. Это очень непростая и очень ответственная работа – помогать будущим мамам произвести на свет здоровых и счастливых малышей. Тем более, что мама маме рознь – кто-то из пациенток Веры Михайловны состоит в законном браке и счастливо ждёт прибавления в семействе, кто-то желает родить ребенка несмотря на хрупкое здоровье или сопротивление родных, а кто-то очень одинок и всерьез помышляет об отказе от первенца… У всех будущих мам есть своя история – трогательная и волнительная, радостная или печальная, но обязательно полная надежды.

Страна: Россия, Беларусь
Студия: «Беларусьфильм» и ООО «Студия «Мы» (Россия)
Продолжительность: 12 х ~00:52:00
Перевод: Не требуется
Файл
Кодек: MPEG-4 AVC
Качество: WEB-DL 720p
Видео: MPEG-4 AVC, ~ 2200 Кбит/с, 1280x704, 25 кадр/с
Звук: AC3, 2 ch, 192 Кбит/с
Семпл
Релиз от:
General
Complete name : Oj.mamochki.2013-2014.WEB-DL.(720p).ExKinoRayOj.mamochki.(04.seriya).2013-2014.WEB-DL.(720p).ExKinoRay.mkv
Format : Matroska
Format version : Version 2
File size : 961 MiB
Duration : 52mn 43s
Overall bit rate : 2 549 Kbps
Encoded date : UTC 2015-05-14 02:45:52
Writing application : mkvmerge v5.8.0 ('No Sleep / Pillow') built on Sep 2 2012 15:37:04
Writing library : libebml v1.2.3 + libmatroska v1.3.0
Video
ID : 1
Format : AVC
Format/Info : Advanced Video Codec
Format profile : Main@L3.1
Format settings, CABAC : Yes
Format settings, ReFrames : 1 frame
Codec ID : V_MPEG4/ISO/AVC
Duration : 52mn 43s
Bit rate : 2 306 Kbps
Width : 1 280 pixels
Height : 704 pixels
Display aspect ratio : 16:9
Frame rate mode : Constant
Frame rate : 25.000 fps
Color space : YUV
Chroma subsampling : 4:2:0
Bit depth : 8 bits
Scan type : Progressive
Bits/(Pixel*Frame) : 0.102
Stream size : 870 MiB (90%)
Writing library : Zencoder Video Encoding System
Language : Russian
Default : Yes
Forced : Yes
Color primaries : BT.709
Transfer characteristics : BT.709
Matrix coefficients : BT.709
Color range : Limited
Audio
ID : 2
Format : AC-3
Format/Info : Audio Coding 3
Mode extension : CM (complete main)
Format settings, Endianness : Big
Codec ID : A_AC3
Duration : 52mn 43s
Bit rate mode : Constant
Bit rate : 192 Kbps
Channel(s) : 2 channels
Channel positions : Front: L R
Sampling rate : 48.0 KHz
Bit depth : 16 bits
Compression mode : Lossy
Stream size : 72.4 MiB (8%)
Language : Russian
Default : Yes
Forced : Yes






   Похожие торренты   Торрент   Размер 
В этой теме нет новых непрочитанных сообщений. Ой, Ма-моч-ки!.. / Ой, мамочки! [01-12 из 12] (2013-2014) WEB-DLRip от ExKinoRay

173 | 55

8.21 ГБ

В этой теме нет новых непрочитанных сообщений. Мамочки [01-02 из 16] (2012) WEB-DL 1080p от ExKinoRay

13 | 20

4.95 ГБ

В этой теме нет новых непрочитанных сообщений. Мамочки [01-02 из 20] (2015) WEB-DL 720p от Files-x

418 | 155

1.87 ГБ

В этой теме нет новых непрочитанных сообщений. Мамочки [01-18 из 20] (2015) WEB-DL 720p от Files-x

89 | 231

8.17 ГБ

В этой теме нет новых непрочитанных сообщений. Мамочки [01-20 из 20] (2015) WEB-DL 720p от Files-x

1740 | 439

9.14 ГБ

В этой теме нет новых непрочитанных сообщений. Мамочки [01-02 из 20] (2015) WEB-DL 720p от Files-x

194 | 34

988.06 МБ

В этой теме нет новых непрочитанных сообщений. Дом большой мамочки 2 / Big Momma's House 2 (2006) BDRip 720p от Castiel163

57 | 7

2.12 ГБ




Вы не можете начинать темы
Вы не можете отвечать на сообщения
Вы не можете редактировать свои сообщения
Вы не можете удалять свои сообщения
Вы не можете добавлять вложения

Перейти:  
Для Мосгорсуда, Роскомнадзора и рекламодателей: mosgorsud-torrent[собачка]yandex.ru
 Вход
ppkBB3cker v.2 © 2008-2014 @ PPK
[ Time : 0.033s | 17 Queries | GZIP : Off ]

Торрент трекер RUTOR.IN, Не можете зайти на rutor.org? Какой новый адрес рутор? Какое зеркало рутор? Не работает rutor.org и зеркала? Тогда наш торрент специально для вас. Rutor.in неофициальное зеркало rutor. В случае если у Вас заблокирован rutor или вдруг Вы не можете на него зайти, то Вы без труда сможете скачать бесплатно и без рекламы последние новинки кино, игр, сериалов и прочего у нас, на Rutor.in. Не нужно использовать прокси, чтобы зайти на рутор, достаточно воспользоваться нашим ресурсом. Все новые фильмы, игры, сериалы, книги и музыка за 2013 и 2014 годы через торрент бесплатно. Скачивайте фильмы в хорошем качестве, игры для пк, xbox, playstation без регистрации. У нас вы найдете новые Зарубежные сериалы и Русские сериалы 2013, 2014, 2015 годов. Оставайтесь с нами, качайте любимые фильмы, игры, сериалы, книги и музыку.