img image001 image001 image001 image001 image001 image001 image001 image001 image001 image001 image001 image001 image001 image001 image001

Planets Sun Sun Sun
Статистика раздачи
Автор: Nickolas3434 | Размер: 8.99 ГБ | Добавлен: 22 май 2015
Раздают: 70    Качают: 73
Скачать торрент
Скачать торрент
Описание торрента

СообщениеДобавлено: 22 май 2015 


Информация о фильме
Название: Безумцы
Оригинальное название: Mad Men
Год выпуска: 2014 - 2015
Страна: США
Жанр: драма
Продолжительность: ~47 мин.
Перевод: Профессиональный (многоголосый закадровый, 3 голоса) IdeaFilm (1-7 серии)
Перевод: Профессиональный (многоголосый закадровый, 5 голосов) Gears Media & IdeaFilm (8-14 серии)
Режиссёр: Скотт Хорнбеккер, Кристофер Мэнли, Мэтью Уэйнер
В ролях: Джон Хэмм, Элизабет Мосс, Винсент Картайзер, Дженьюри Джонс, Кристина Хендрикс, Аарон Стэтон, Рич Соммер и другие.
Описание:
США, 60-е годы ХХ века. В центре повествования — работа рекламного Агентства «Стерлинг-Купер», расположенного на престижной Медисон-авеню в центре Нью-Йорка, и жизнь его креативного директора — мастера манипуляций и интриг — Дона Дрейпера. Находясь на вершине карьеры, он противостоит конкурентам, стараясь сберечь своe положение в компании. Служебные и семейные перипетии Дона и его коллег происходят на фоне глобальных событий в жизни американского общества тех лет
Доп. информация:
Студийная озвучка

Файл
Качество: WEB-DLRip
Контейнер: AVI
Видео: xvid, 720x400 [16:9], 23.976 fps, 1500 kbps, 0.179 bit/pixel
Аудио: русский, AC3, 48 kHz, 6 ch, 384 kbps
Субтитры: отсутствуют
Format : AVI
Format/Info : Audio Video Interleave
File size : 642 MiB
Duration : 47mn 45s
Overall bit rate : 1 879 Kbps
Writing application : VirtualDubMod 1.5.10.3 | www.virtualdub-fr.org || (build 2550/release)
Writing library : VirtualDubMod build 2550/release
Video
ID : 0
Format : MPEG-4 Visual
Format profile : Advanced Simple@L5
Format settings, BVOP : Yes
Format settings, QPel : No
Format settings, GMC : No warppoints
Format settings, Matrix : Default (H.263)
Codec ID : DX50
Codec ID/Hint : DivX 5
Duration : 47mn 45s
Bit rate : 1 485 Kbps
Width : 720 pixels
Height : 400 pixels
Display aspect ratio : 16:9
Frame rate : 23.976 fps
Color space : YUV
Chroma subsampling : 4:2:0
Bit depth : 8 bits
Scan type : Progressive
Compression mode : Lossy
Bits/(Pixel*Frame) : 0.215
Stream size : 507 MiB (79%)
Writing library : XviD 73
Audio
ID : 1
Format : AC-3
Format/Info : Audio Coding 3
Mode extension : CM (complete main)
Format settings, Endianness : Big
Codec ID : 2000
Duration : 47mn 45s
Bit rate mode : Constant
Bit rate : 384 Kbps
Channel count : 2 channels
Channel positions : Front: L R
Sampling rate : 48.0 KHz
Bit depth : 16 bits
Compression mode : Lossy
Stream size : 131 MiB (20%)
Alignment : Split accross interleaves
Interleave, duration : 42 ms (1.00 video frame)
Interleave, preload duration : 500 ms





   Похожие торренты   Торрент   Размер 
В этой теме нет новых непрочитанных сообщений. Безумцы / Mad Men [07x01-13 из 14] (2015) WEB-DLRip | Gears Media & IdeaFilm

49 | 22

8.24 ГБ

В этой теме нет новых непрочитанных сообщений. Безумцы / Mad Men [07x01-12 из 14] (2015) WEB-DL | Gears Media & IdeaFilm

33 | 48

7.53 ГБ

В этой теме нет новых непрочитанных сообщений. Безумцы / Mad Men [07x01-08 из 14] (2015) WEB-DL | Gears Media & IdeaFilm

13 | 15

5.03 ГБ

В этой теме нет новых непрочитанных сообщений. Безумцы / Mad Men [S07] (2015) WEB-DL 720p | Gears Media & IdeaFilm

50 | 83

23.02 ГБ

В этой теме нет новых непрочитанных сообщений. Безумцы / Mad Men [07x01-11 из 14] (2015) WEB-DL | Gears Media & IdeaFilm

19 | 21

6.91 ГБ

В этой теме нет новых непрочитанных сообщений. Безумцы / Mad Men [07x01-08 из 14] (2015) WEB-DL 720p | Gears Media & IdeaFilm

8 | 15

12.83 ГБ

В этой теме нет новых непрочитанных сообщений. Безумцы / Mad Men [07x01-10 из 14] (2015) WEB-DL 720p | Gears Media & IdeaFilm

14 | 17

15.76 ГБ




Вы не можете начинать темы
Вы не можете отвечать на сообщения
Вы не можете редактировать свои сообщения
Вы не можете удалять свои сообщения
Вы не можете добавлять вложения

Перейти:  
Для Мосгорсуда, Роскомнадзора и рекламодателей: mosgorsud-torrent[собачка]yandex.ru
 Вход
ppkBB3cker v.2 © 2008-2014 @ PPK
[ Time : 0.039s | 14 Queries | GZIP : Off ]

Торрент трекер RUTOR.IN, Не можете зайти на rutor.org? Какой новый адрес рутор? Какое зеркало рутор? Не работает rutor.org и зеркала? Тогда наш торрент специально для вас. Rutor.in неофициальное зеркало rutor. В случае если у Вас заблокирован rutor или вдруг Вы не можете на него зайти, то Вы без труда сможете скачать бесплатно и без рекламы последние новинки кино, игр, сериалов и прочего у нас, на Rutor.in. Не нужно использовать прокси, чтобы зайти на рутор, достаточно воспользоваться нашим ресурсом. Все новые фильмы, игры, сериалы, книги и музыка за 2013 и 2014 годы через торрент бесплатно. Скачивайте фильмы в хорошем качестве, игры для пк, xbox, playstation без регистрации. У нас вы найдете новые Зарубежные сериалы и Русские сериалы 2013, 2014, 2015 годов. Оставайтесь с нами, качайте любимые фильмы, игры, сериалы, книги и музыку.