img image001 image001 image001 image001 image001 image001 image001 image001 image001 image001 image001 image001 image001 image001 image001

Planets Sun Sun Sun
Статистика раздачи
Автор: Nickolas3434 | Размер: 6.74 ГБ | Добавлен: 21 май 2015
Раздают: 19    Качают: 10
Скачать торрент
Скачать торрент
Описание торрента

СообщениеДобавлено: 21 май 2015 


Год выпуска: 2015
Страна: США
Жанр: драма, криминал
Продолжительность: 12x ~42 мин.
Перевод: Профессиональный (многоголосый закадровый) [Gears Media]
Режиссёр: Эндрю Бернштейн, Дэниэл Эттиэс, Колин Бакси
В ролях: Джош Дюамель, Дин Уинтерс, Джанет МакТир, Кэл Пенн, Обри Доллар, Дэймон Херриман, Лиза Лапира, Джесси Фудрей, Мередит Итон, Джули Перл, Артур Ричардсон
Описание:
Два детектива с разными взглядами на мир объединяются, чтобы очистить улицы Батл Крика, используя цинизм, коварство и обман…
Доп. информация:
Студийная озвучка
Качество: WEB-DLRip
Контейнер: AVI
Видео: 720x400 (1.80:1), 23.976 fps, XviD build 50 ~1803 kbps avg, 0.26 bit/pixel
Аудио: Russian, AC3, 48 kHz, 2 ch, 192 kbps
Субтитры: отсутствуют
Семпл
Формат : AVI
Формат/Информация : Audio Video Interleave
Размер файла : 601 Мбайт
Продолжительность : 41 м.
Общий поток : 2005 Кбит/сек
Программа кодирования : VirtualDubMod 1.5.10.2 (build 2540/release)
Библиотека кодирования : VirtualDubMod build 2540/release
Видео
Идентификатор : 0
Формат : MPEG-4 Visual
Профиль формата : Advanced Simple@L5
Параметр BVOP формата : 2
Параметр QPel формата : Нет
Параметр GMC формата : Без точки перехода
Параметр матрицы формата : Default (MPEG)
Идентификатор кодека : XVID
Идентификатор кодека/Подсказка : XviD
Продолжительность : 41 м.
Битрейт : 1804 Кбит/сек
Ширина : 720 пикселей
Высота : 400 пикселей
Соотношение сторон : 16:9
Частота кадров : 23,976 кадра/сек
Цветовое пространство : YUV
Субдискретизация насыщенности : 4:2:0
Битовая глубина : 8 бит
Тип развёртки : Прогрессивная
Метод сжатия : С потерями
Бит/(Пиксели*Кадры) : 0.261
Размер потока : 541 Мбайт (90%)
Библиотека кодирования : XviD 1.2.1 (UTC 2008-12-04)
Аудио
Идентификатор : 1
Формат : AC-3
Формат/Информация : Audio Coding 3
Расширение режима : CM (complete main)
Параметр Endianness формата : Big
Идентификатор кодека : 2000
Продолжительность : 41 м.
Вид битрейта : Постоянный
Битрейт : 192 Кбит/сек
Каналы : 2 канала
Расположение каналов : Front: L R
Частота : 48,0 КГц
Битовая глубина : 16 бит
Метод сжатия : С потерями
Размер потока : 57,6 Мбайт (10%)
Выравнивание : Разделение по промежуткам
Продолжительность промежутка : 42 мс. (1,00 видеокадр)
Время предзагрузки промежутка : 500 мс.



Релиз от: Gears Media



   Похожие торренты   Торрент   Размер 
В этой теме нет новых непрочитанных сообщений. Батл Крик / Battle Creek [01х01-11 из 13] (2015) WEB-DLRip | Gears Media

86 | 53

6.23 ГБ

В этой теме нет новых непрочитанных сообщений. Батл Крик / Battle Creek [01х01-04 из 13] (2015) WEB-DLRip | Gears Media

22 | 29

2.45 ГБ

В этой теме нет новых непрочитанных сообщений. Батл Крик / Battle Creek [01х01-07 из 13] (2015) WEB-DLRip | Gears Media

4 | 11

4.28 ГБ

В этой теме нет новых непрочитанных сообщений. Батл Крик / Battle Creek [01х01-09 из 13] (2015) WEB-DLRip | Gears Media

14 | 16

5.27 ГБ

В этой теме нет новых непрочитанных сообщений. Батл Крик / Battle Creek [01х01-06 из 13] (2015) WEB-DLRip | Gears Media

18 | 30

3.72 ГБ

В этой теме нет новых непрочитанных сообщений. Батл Крик / Battle Creek [01х01-08 из 13] (2015) WEB-DLRip | Gears Media

6 | 20

4.79 ГБ

В этой теме нет новых непрочитанных сообщений. Батл Крик / Battle Creek [01х01-05 из 13] (2015) WEB-DLRip | Gears Media

12 | 7

3.03 ГБ




Вы не можете начинать темы
Вы не можете отвечать на сообщения
Вы не можете редактировать свои сообщения
Вы не можете удалять свои сообщения
Вы не можете добавлять вложения

Перейти:  
Для Мосгорсуда, Роскомнадзора и рекламодателей: mosgorsud-torrent[собачка]yandex.ru
 Вход
ppkBB3cker v.2 © 2008-2014 @ PPK
[ Time : 0.039s | 15 Queries | GZIP : Off ]

cron