img image001 image001 image001 image001 image001 image001 image001 image001 image001 image001 image001 image001 image001 image001 image001

Planets Sun Sun Sun
Статистика раздачи
Автор: Nickolas3434 | Размер: 2.22 ГБ | Добавлен: 24 май 2015
Раздают: 170    Качают: 16
Скачать торрент
Скачать торрент
Описание торрента

СообщениеДобавлено: 24 май 2015 

Оригинальное название: Криминальное наследство
Год выхода: 2014
Жанр: Драма, криминал
Режиссер: Алексей Луканев
В ролях: Александр Галибин, Кирилл Запорожский, Денис Синявский, Анастасия Лукьянова, Екатерина Молоховская, Светлана Чернова, Сергей Яковлев (V), Илья Иосифов, Ольга Михайлова (IV)
О фильме:
Многие годы тренер по биатлону Борис Ермаков скрывал от семьи неприглядную правду о своей жизни. Когда-то, в лихие девяностые, он был киллером крупной преступной группировки. Однажды прошлое напомнило о себе самым безжалостным образом: преступники похитили младшего сына Бориса — Андрея. Борис должен был вспомнить прежнее ремесло и убить своего бывшего воспитанника, а ныне крупного бизнесмена Струкова. Только вот сам тренер из-за проблем со здоровьем оказался не в состоянии «выполнить заказ», и это пришлось сделать старшему сыну Бориса, Денису… Андрей вернулся домой, но Денис попал в тюрьму по обвинению в убийстве. Все пошло по плану неизвестного шантажиста, оставившего семье Ермаковых немало вопросов. Сможет ли Денис разобраться во всем, что произошло в его семье, и вычислить человека, который ими манипулирует?

Страна: Россия
Студия: ООО «Фильм "232"
Продолжительность: 4 х ~ 00:45:00
Перевод: Не требуется
Файл
Кодек: MPEG-4 AVC
Качество: 720p
Видео: 1024х576, 25 fps, High@L4.1 ~ 1600 Kbps
Звук: AC3, 2 ch, 192 kbps
General
Unique ID : 17157734490392168386580089576382343486 (0xCE8759F62D8CDD174D6346A07F5293E)
Complete name : F:СериалыКриминальное наследство [01-04 из 04] (2014) HDTVRIP_AVCKriminalnoe.nasledstvo.(01.seriya.iz.04).2014.HDTVRIP_AVC.[-=DoMiNo=-].mkv
Format : Matroska
Format version : Version 4 / Version 2
File size : 590 MiB
Duration : 44mn 47s
Overall bit rate : 1 842 Kbps
Writing application : XviD4PSP 7.0.133
Writing library : Lavf56.15.102
Video
ID : 1
Format : AVC
Format/Info : Advanced Video Codec
Format profile : High@L4.1
Format settings, CABAC : Yes
Format settings, ReFrames : 10 frames
Codec ID : V_MPEG4/ISO/AVC
Duration : 44mn 47s
Bit rate : 1 613 Kbps
Width : 1 024 pixels
Height : 576 pixels
Display aspect ratio : 16:9
Frame rate mode : Constant
Frame rate : 25.000 fps
Color space : YUV
Chroma subsampling : 4:2:0
Bit depth : 8 bits
Scan type : Progressive
Bits/(Pixel*Frame) : 0.109
Stream size : 517 MiB (88%)
Writing library : x264 core 146 r2538M 121396c
Encoding settings : cabac=1 / ref=10 / deblock=1:-3:-3 / analyse=0x3:0x133 / me=umh / subme=9 / psy=1 / psy_rd=1,00:0,10 / mixed_ref=1 / me_range=32 / chroma_me=1 / trellis=1 / 8x8dct=1 / cqm=0 / deadzone=21,11 / fast_pskip=0 / chroma_qp_offset=-3 / threads=12 / lookahead_threads=2 / sliced_threads=0 / nr=0 / decimate=1 / interlaced=0 / bluray_compat=0 / constrained_intra=0 / bframes=9 / b_pyramid=2 / b_adapt=2 / b_bias=0 / direct=1 / weightb=1 / open_gop=0 / weightp=2 / keyint=250 / keyint_min=25 / scenecut=40 / intra_refresh=0 / rc=crf / mbtree=0 / crf=21,0 / qcomp=0,60 / qpmin=10 / qpmax=69 / qpstep=4 / ip_ratio=1,40 / pb_ratio=1,30 / aq=1:1,00
Default : Yes
Forced : Yes
Audio
ID : 2
Format : AC-3
Format/Info : Audio Coding 3
Mode extension : CM (complete main)
Format settings, Endianness : Big
Codec ID : A_AC3
Duration : 44mn 47s
Bit rate mode : Constant
Bit rate : 192 Kbps
Channel(s) : 2 channels
Channel positions : Front: L R
Sampling rate : 48.0 KHz
Bit depth : 32 bits
Compression mode : Lossy
Stream size : 61.5 MiB (10%)
Default : Yes
Forced : Yes








   Похожие торренты   Торрент   Размер 
В этой теме нет новых непрочитанных сообщений. Криминальное наследство [01-04 из 04] (2014) HDTVRip-AVC

239 | 20

2.82 ГБ

В этой теме нет новых непрочитанных сообщений. Криминальное наследство [01 из 04] (2014) HDTVRip от Files-х

956 | 129

2.15 ГБ

В этой теме нет новых непрочитанных сообщений. Криминальное наследство [01-04 из 04] (2014) HDTVRip 720p от MediaClub

388 | 70

7.39 ГБ

В этой теме нет новых непрочитанных сообщений. Криминальное наследство [01-04 из 04] (2014) DVB от Files-x

146 | 11

3.57 ГБ

В этой теме нет новых непрочитанных сообщений. Криминальное наследство [01 серии из 04] (2014) DVB от Files-x

2 | 0

899.46 МБ

В этой теме нет новых непрочитанных сообщений. Криминальное наследство [01-04 из 04] (2014) SATRip от GeneralFilm

1021 | 75

2.2 ГБ

В этой теме нет новых непрочитанных сообщений. Криминальное наследство [01-04 из 04] (2014) SATRip-AVC от Files-х

74 | 8

2.15 ГБ




Вы не можете начинать темы
Вы не можете отвечать на сообщения
Вы не можете редактировать свои сообщения
Вы не можете удалять свои сообщения
Вы не можете добавлять вложения

Перейти:  
Для Мосгорсуда, Роскомнадзора и рекламодателей: mosgorsud-torrent[собачка]yandex.ru
 Вход
ppkBB3cker v.2 © 2008-2014 @ PPK
[ Time : 0.075s | 16 Queries | GZIP : Off ]

Торрент трекер RUTOR.IN, Не можете зайти на rutor.org? Какой новый адрес рутор? Какое зеркало рутор? Не работает rutor.org и зеркала? Тогда наш торрент специально для вас. Rutor.in неофициальное зеркало rutor. В случае если у Вас заблокирован rutor или вдруг Вы не можете на него зайти, то Вы без труда сможете скачать бесплатно и без рекламы последние новинки кино, игр, сериалов и прочего у нас, на Rutor.in. Не нужно использовать прокси, чтобы зайти на рутор, достаточно воспользоваться нашим ресурсом. Все новые фильмы, игры, сериалы, книги и музыка за 2013 и 2014 годы через торрент бесплатно. Скачивайте фильмы в хорошем качестве, игры для пк, xbox, playstation без регистрации. У нас вы найдете новые Зарубежные сериалы и Русские сериалы 2013, 2014, 2015 годов. Оставайтесь с нами, качайте любимые фильмы, игры, сериалы, книги и музыку.