img image001 image001 image001 image001 image001 image001 image001 image001 image001 image001 image001 image001 image001 image001 image001

Planets Sun Sun Sun
Статистика раздачи
Автор: Nickolas3434 | Размер: 8.7 ГБ | Добавлен: 26 май 2015
Раздают: 305    Качают: 98
Скачать торрент
Скачать торрент
Описание торрента

СообщениеДобавлено: 26 май 2015 

Информация о фильме
Название: Игра
Год выхода: 2011
Жанр: Детектив, криминал
Режиссер: Георгий Гаврилов, Сергей Лесогоров, Геннадий Иванов (V), Тимур Алпатов
В ролях: Прохор Дубравин, Павел Баршак, Мария Горбань, Наталья Левина, Дарья Повереннова, Спартак Сумченко, Владимир Фекленко, Игорь Теплов, Вероника Амирханова, Андрей Лебедев, Елена Торяник, Иван Мамонов, Анжелика Кошевая, Фёдор Миренков, Андрис Лиелайс, Георгий Сегал, Рауль Ганеев, Алексей Герилович, Иосиф Райхельгауз, Михаил Хмуров, Лидия Кузнецова, Бабек Акбаров, Ян Воробьёв, Владимир Шульга, Юрий Внуков, Сергей Баровский, Анна Фурс, Елена Антипова, Андрей Бажин, Андрей Афанасьев, Евгений Кожевников, Семён Штейнберг, Николай Козак, Ольга Дибцева, Евгений Березовский, Александр Загрудный, Алексей Аникин, Дмитрий Филиппов
О фильме:
Сериал расскажет о противостоянии двух невероятно сильных личностей: следователя ФСБ Белова и отчаянного бандита Смолина, которые, однажды столкнувшись, станут личными врагами на всю жизнь. Это будет захватывающий поединок между равновеликими фигурами, одного из которых ведут правильные и положительные чувства и эмоции, второго - самые низменные пороки и страсти.
Страна: Россия
Студия: Телекомпания DIXI TV
Продолжительность: 20 х ~ 00:50:00
Перевод: Не требуется
Файл
Кодек: XviD
Качество: WEBRip
Видео: MPEG4, XviD, 720x400 (16:9), 25.000 fps, 1 149 Kbps (0.160 bit/pixel)
Звук: AC-3, 48.0 KHz, 2 ch, 192 Kbps, CBR
Субтитры: Нет

01. Часы Фишера
02. Белов
03. Младший
04. La legion etrangere
05. Спящая ячейка
06. Невидимая крепость
07. Чёрный ферзь
08. Щепка
09. Пешка
10. Рокировка
11. Убийца
12. Размен
13. Расплата
14. Это бизнес
15. Кровь невиновных
16. Пат
17. Эндшпиль
18. Мой единственный друг
19. Шах
20. Мат

Общее
Полное имя : D:Мои фильмыIgra_S1_01-20iz20_2011_XviD_WEBRipIgra_S1_17_iz_20_2011_WEBRip.avi
Формат : AVI
Формат/Информация : Audio Video Interleave
Размер файла : 445 Мбайт
Продолжительность : 46 м.
Общий поток : 1351 Кбит/сек
Библиотека кодирования : VirtualDub build 35491/release
Видео
Идентификатор : 0
Формат : MPEG-4 Visual
Профиль формата : Advanced Simple@L5
Параметр BVOP формата : 2
Параметр QPel формата : Нет
Параметр GMC формата : Без точки перехода
Параметр матрицы формата : Default (H.263)
Идентификатор кодека : XVID
Идентификатор кодека/Подсказка : XviD
Продолжительность : 46 м.
Битрейт : 1149 Кбит/сек
Ширина : 720 пикселей
Высота : 400 пикселей
Соотношение сторон : 16:9
Частота кадров : 25,000 кадров/сек
Цветовое пространство : YUV
Субдискретизация насыщенности : 4:2:0
Битовая глубина : 8 бит
Тип развёртки : Прогрессивная
Метод сжатия : С потерями
Бит/(Пиксели*Кадры) : 0.160
Размер потока : 379 Мбайт (85%)
Библиотека кодирования : XviD 66
Аудио
Идентификатор : 1
Формат : AC-3
Формат/Информация : Audio Coding 3
Расширение режима : CM (complete main)
Параметр Endianness формата : Big
Идентификатор кодека : 2000
Продолжительность : 46 м.
Вид битрейта : Постоянный
Битрейт : 192 Кбит/сек
Каналы : 2 канала
Расположение каналов : Front: L R
Частота : 48,0 КГц
Битовая глубина : 16 бит
Метод сжатия : С потерями
Размер потока : 63,3 Мбайт (14%)
Выравнивание : Соединение по промежуткам
Продолжительность промежутка : 40 мс. (1,00 видеокадр)
Время предзагрузки промежутка : 512 мс.





   Похожие торренты   Торрент   Размер 
В этой теме нет новых непрочитанных сообщений. Игра [01-20 из 20] (2011) WEBRip-AVC от New-Team

35 | 8

12.32 ГБ

В этой теме нет новых непрочитанных сообщений. Игра [01-20 из 20] (2011) WEBRip-AVC от New-Team

251 | 81

12.32 ГБ

В этой теме нет новых непрочитанных сообщений. Игра [01-20 из 20] (2011) WEBRip-AVC от New-Team

109 | 18

12.25 ГБ

В этой теме нет новых непрочитанных сообщений. Игра / O'YIN (2005) WEBRip

40 | 7

1.76 ГБ

В этой теме нет новых непрочитанных сообщений. Игра в поддавки (2013) WEBRip

12 | 2

602.88 МБ

В этой теме нет новых непрочитанных сообщений. Игра на вылет [01-02 из 16] (2015) WEBRip от Files-x

24 | 6

1.61 ГБ

В этой теме нет новых непрочитанных сообщений. Игра на вылет [01-02 из 16] (2015) WEBRip от Files-x

15 | 7

1.07 ГБ




Вы не можете начинать темы
Вы не можете отвечать на сообщения
Вы не можете редактировать свои сообщения
Вы не можете удалять свои сообщения
Вы не можете добавлять вложения

Перейти:  
Для Мосгорсуда, Роскомнадзора и рекламодателей: mosgorsud-torrent[собачка]yandex.ru
 Вход
ppkBB3cker v.2 © 2008-2014 @ PPK
[ Time : 0.039s | 17 Queries | GZIP : On ]

Торрент трекер RUTOR.IN, Не можете зайти на rutor.org? Какой новый адрес рутор? Какое зеркало рутор? Не работает rutor.org и зеркала? Тогда наш торрент специально для вас. Rutor.in неофициальное зеркало rutor. В случае если у Вас заблокирован rutor или вдруг Вы не можете на него зайти, то Вы без труда сможете скачать бесплатно и без рекламы последние новинки кино, игр, сериалов и прочего у нас, на Rutor.in. Не нужно использовать прокси, чтобы зайти на рутор, достаточно воспользоваться нашим ресурсом. Все новые фильмы, игры, сериалы, книги и музыка за 2013 и 2014 годы через торрент бесплатно. Скачивайте фильмы в хорошем качестве, игры для пк, xbox, playstation без регистрации. У нас вы найдете новые Зарубежные сериалы и Русские сериалы 2013, 2014, 2015 годов. Оставайтесь с нами, качайте любимые фильмы, игры, сериалы, книги и музыку.