img image001 image001 image001 image001 image001 image001 image001 image001 image001 image001 image001 image001 image001 image001 image001

Planets Sun Sun Sun
Статистика раздачи
Автор: Nickolas3434 | Размер: 10.92 ГБ | Добавлен: 03 июн 2015
Раздают: 60    Качают: 21
Скачать торрент
Скачать торрент
Описание торрента

СообщениеДобавлено: 03 июн 2015 

Год выпуска: 2015
Страна: США
Жанр: Боевик, фантастика, драма
Продолжительность: ~ 00:42:00
Перевод: Полное дублирование Невафильм
Режиссёр: Стивен Крегг, Луис Д’Эспозито, Питер Лето
В ролях: Хейли Этвелл, Джеймс Д’Арси, Чад Майкл Мюррэй, Энвер Гьокай, Ши Уигхэм, Линдси Фонсека, Бриджет Риган, Ральф Браун, Меган Фэй, Доминик Купер
Описание: История Пегги Картер. В 1946 году мир нанес Пегги серьезный удар, когда она оказывается в неудобном для нее положении с возвращением домой мужчин со сражений за границей. Работая на секретную организацию СНР (Стратегический Научный Резерв), Пегги должна найти баланс между административной работой и секретными миссиями для Говарда Старка, одновременно пытаясь жить нормальной жизнью одинокой женщины в Америке после утраты любви всей ее жизни — Стива Роджерса.
СЕМПЛ
Качество: WEB-DL 720p
Формат: MKV
Видео кодек: H.264
Аудио кодек: AC3
Видео: 3894 Kbps, 1280x720 (16:9), 23.976 fps
Аудио: AC3, 48.0 KHz, 2 ch, 192 kbps RU
Аудио 2: AC3, 48.0 KHz, 6 ch, 384 kbps ENG
Субтитры: русские, английские
Дубляж приобретен за счет mrpooph и BS666. Запись звука - xironfs.
Общее
Уникальный идентификатор : 193349635387322587319388335572223611346 (0x9175C906552E0DDA87CE8E6E448551D2)
Полное имя : D:ЗагрузкиAgent.Carter.S01.720pAgent.Carter.S01E01.720p.mkv
Формат : Matroska
Версия формата : Version 4 / Version 2
Размер файла : 1,36 Гбайт
Продолжительность : 42 м.
Общий поток : 4561 Кбит/сек
Дата кодирования : UTC 2015-05-23 17:44:21
Программа кодирования : mkvmerge v7.1.0 ('Good Love') 64bit built on Jul 27 2014 13:06:55
Библиотека кодирования : libebml v1.3.0 + libmatroska v1.4.1
DURATION : 00:41:52.442000000
NUMBER_OF_FRAMES : 752
NUMBER_OF_BYTES : 31597
_STATISTICS_WRITING_APP : mkvmerge v7.1.0 ('Good Love') 64bit built on Jul 27 2014 13:06:55
_STATISTICS_WRITING_DATE_UTC : 2015-05-23 17:44:21
_STATISTICS_TAGS : BPS DURATION NUMBER_OF_FRAMES NUMBER_OF_BYTES
Видео
Идентификатор : 1
Формат : AVC
Формат/Информация : Advanced Video Codec
Профиль формата : High@L3.1
Параметр CABAC формата : Нет
Параметр ReFrames формата : 2 кадра
Идентификатор кодека : V_MPEG4/ISO/AVC
Продолжительность : 42 м.
Битрейт : 3894 Кбит/сек
Ширина : 1280 пикселей
Высота : 720 пикселей
Соотношение сторон : 16:9
Режим частоты кадров : Постоянный
Частота кадров : 23,976 кадра/сек
Цветовое пространство : YUV
Субдискретизация насыщенности : 4:2:0
Битовая глубина : 8 бит
Тип развёртки : Прогрессивная
Бит/(Пиксели*Кадры) : 0.176
Размер потока : 1,16 Гбайт (85%)
Default : Да
Forced : Нет
Основные цвета : BT.709
Характеристики трансфера : BT.709
Коэффициенты матрицы : BT.709
Аудио #1
Идентификатор : 2
Формат : AC-3
Формат/Информация : Audio Coding 3
Расширение режима : CM (complete main)
Параметр Endianness формата : Big
Идентификатор кодека : A_AC3
Продолжительность : 42 м.
Вид битрейта : Постоянный
Битрейт : 192 Кбит/сек
Каналы : 2 канала
Расположение каналов : Front: L R
Частота : 48,0 КГц
Битовая глубина : 16 бит
Метод сжатия : С потерями
Размер потока : 58,5 Мбайт (4%)
Язык : Russian
Default : Да
Forced : Нет
Аудио #2
Идентификатор : 3
Формат : AC-3
Формат/Информация : Audio Coding 3
Расширение режима : CM (complete main)
Параметр Endianness формата : Big
Идентификатор кодека : A_AC3
Продолжительность : 42 м.
Вид битрейта : Постоянный
Битрейт : 384 Кбит/сек
Каналы : 6 каналов
Расположение каналов : Front: L C R, Side: L R, LFE
Частота : 48,0 КГц
Битовая глубина : 16 бит
Метод сжатия : С потерями
Размер потока : 117 Мбайт (8%)
Язык : English
Default : Нет
Forced : Нет
Текст #1
Идентификатор : 4
Формат : UTF-8
Идентификатор кодека : S_TEXT/UTF8
Идентификатор кодека/Информация : UTF-8 Plain Text
Язык : Russian
Default : Нет
Forced : Нет
Текст #2
Идентификатор : 5
Формат : UTF-8
Идентификатор кодека : S_TEXT/UTF8
Идентификатор кодека/Информация : UTF-8 Plain Text
Default : Нет
Forced : Нет




   Похожие торренты   Торрент   Размер 
В этой теме нет новых непрочитанных сообщений. Агент Картер / Agent Carter [S01] (2015) BDRip 720p от HDClub | LostFilm, Jaskier, Невафильм

83 | 34

23.96 ГБ

В этой теме нет новых непрочитанных сообщений. Агент Картер / Agent Carter [S02] (2015) WEB-DL 1080p | Невафильм

81 | 48

16.88 ГБ

В этой теме нет новых непрочитанных сообщений. Агент Картер / Agent Carter [S01] (2015) WEB-DLRip | Невафильм

174 | 110

4.32 ГБ

В этой теме нет новых непрочитанных сообщений. Агент Картер / Agent Carter [S01] (2015) WEB-DL 1080p | Невафильм

57 | 31

13 ГБ

В этой теме нет новых непрочитанных сообщений. Агент Картер / Agent Carter [S01] (2015) WEB-DLRip от Generalfilm | КПК | Невафильм

108 | 20

1.49 ГБ

В этой теме нет новых непрочитанных сообщений. Агент Картер / Agent Carter [S01] (2015) WEB-DLRip | LostFilm, Невафильм

262 | 50

7.26 ГБ

В этой теме нет новых непрочитанных сообщений. Агент Картер / Agent Carter [S01-02] (2015-2016) WEB-DLRip от Generalfilm | КПК | Невафильм

32 | 8

3.37 ГБ




Вы не можете начинать темы
Вы не можете отвечать на сообщения
Вы не можете редактировать свои сообщения
Вы не можете удалять свои сообщения
Вы не можете добавлять вложения

Перейти:  
Для Мосгорсуда, Роскомнадзора и рекламодателей: mosgorsud-torrent[собачка]yandex.ru
 Вход
ppkBB3cker v.2 © 2008-2014 @ PPK
[ Time : 0.527s | 15 Queries | GZIP : Off ]

Торрент трекер RUTOR.IN, Не можете зайти на rutor.org? Какой новый адрес рутор? Какое зеркало рутор? Не работает rutor.org и зеркала? Тогда наш торрент специально для вас. Rutor.in неофициальное зеркало rutor. В случае если у Вас заблокирован rutor или вдруг Вы не можете на него зайти, то Вы без труда сможете скачать бесплатно и без рекламы последние новинки кино, игр, сериалов и прочего у нас, на Rutor.in. Не нужно использовать прокси, чтобы зайти на рутор, достаточно воспользоваться нашим ресурсом. Все новые фильмы, игры, сериалы, книги и музыка за 2013 и 2014 годы через торрент бесплатно. Скачивайте фильмы в хорошем качестве, игры для пк, xbox, playstation без регистрации. У нас вы найдете новые Зарубежные сериалы и Русские сериалы 2013, 2014, 2015 годов. Оставайтесь с нами, качайте любимые фильмы, игры, сериалы, книги и музыку.